<?xml version="1.0" standalone="no"?>
<!DOCTYPE svg PUBLIC "-//W3C//DTD SVG 1.1//EN" "http://www.w3.org/Graphics/SVG/1.1/DTD/svg11.dtd">
<svg xmlns="http://www.w3.org/2000/svg">
<defs >
<font id="Oswald" horiz-adv-x="459" ><font-face
    font-family="Oswald SemiBold"
    units-per-em="1000"
    panose-1="0 0 0 0 0 0 0 0 0 0"
    ascent="1193"
    descent="-289"
    alphabetic="0" />
<glyph unicode=" " horiz-adv-x="250" />
<glyph unicode="!" horiz-adv-x="247" d="M93 199L49 808H200L146 199H93ZM47 0V143H191V0H47Z" />
<glyph unicode="&quot;" horiz-adv-x="340" d="M24 520V810H154L95 520H24ZM198 520V810H328L270 520H198Z" />
<glyph unicode="#" horiz-adv-x="524" d="M63 0L96 273H44L46 370H110L124 482H47L49 581H140L168 810H274L246 581H326L354 810H459L431 581H481L479 482H414L401 370H477L474 273H387L353 0H248L282 273H202L168 0H63ZM214 370H296L310 482H229L214 370Z" />
<glyph unicode="$" horiz-adv-x="486" d="M235 -103V-10Q132 -6 81 56T26 241L167 265Q169 215 177 182T203 132T247 115Q278 115 289 135T301 181Q301 232 278 266T213 336L128 409Q99 436 76 464T40 528T26 613Q26 707 79 759T223 819V908H271V819Q325 816 359
795T412 741T438 670T448 595L305 574Q304 611 299 639T281 684T241 699Q213 698 199 677T184 630Q184 584 206 556T256 502L339 430Q372 400 400 365T445 288T462 190Q462 137 441 94T379 23T283 -9V-103H235Z" />
<glyph unicode="%" horiz-adv-x="982" d="M323 0L566 810H657L414 0H323ZM225 356Q127 356 85 409T43 566V607Q43 713 84 762T225 812Q326 812 367 764T408 610V563Q408 461 367 409T225 356ZM225 455Q251 455 263 469T278 509T281 570V605Q281 658 274 685T225
712Q185 712 177 686T169 605V569Q169 534 172 509T188 469T225 455ZM755 -2Q656 -2 615 51T573 207V249Q573 354 613 404T755 454Q856 454 897 406T938 252V206Q938 102 896 50T755 -2ZM755 97Q781 97 792 111T807 150T811 210V247Q811 301 803 327T755 354Q715
354 707 327T699 247V210Q699 176 702 151T717 111T755 97Z" />
<glyph unicode="&amp;" horiz-adv-x="578" d="M231 -11Q176 -11 133 12T67 79T43 180Q43 257 76 314T159 423Q139 459 120 495T88 569T76 643Q76 694 96 734T156 797T252 821Q304 821 342 800T404 742T427 654Q427 598 404 554T349 474T287 406L387 225Q397 242
403 271T414 333T419 392H529Q529 338 521 294T498 212T464 141Q475 127 494 118T533 106V-11Q526 -12 520 -13T508 -14Q482 -13 459 -2T416 25T383 59Q357 27 319 8T231 -11ZM236 93Q262 93 282 106T316 139L212 324Q189 290 178 256T167 186Q167 160 175 139T198
106T236 93ZM242 486Q258 506 272 535T295 597T305 656Q305 683 290 697T254 712Q230 712 217 693T203 643Q203 601 215 560T242 486Z" />
<glyph unicode="&apos;" horiz-adv-x="161" d="M24 520V810H149L98 520H24Z" />
<glyph unicode="(" horiz-adv-x="329" d="M296 -182Q231 -182 189 -156T122 -81T84 30T68 166T64 315Q64 396 67 470T83 608T121 719T189 792T296 819V714Q266 713 248 685T220 604T207 478T204 315Q204 224 207 152T221 29T249 -49T296 -77V-182Z" />
<glyph unicode=")" horiz-adv-x="314" d="M34 -182V-76Q63 -76 80 -49T107 29T120 152T124 316Q124 407 121 480T109 605T82 685T34 714V819Q98 819 140 793T208 720T245 610T261 472T265 316Q265 240 262 167T246 31T208 -80T141 -155T34 -182Z" />
<glyph unicode="*" horiz-adv-x="418" d="M165 454L77 507L150 611L41 653L75 744L175 688L163 810H276L263 688L364 744L398 652L288 610L362 507L272 454L219 564L165 454Z" />
<glyph unicode="+" horiz-adv-x="441" d="M169 208V369H26V461H169V618H271V461H416V369H271V208H169Z" />
<glyph unicode="," horiz-adv-x="227" d="M66 -138L54 -87Q80 -79 101 -60T122 0H43V146H188V17Q187 -53 157 -92T66 -138Z" />
<glyph unicode="-" horiz-adv-x="372" d="M61 291V390H312V291H61Z" />
<glyph unicode="." horiz-adv-x="232" d="M47 0V147H191V0H47Z" />
<glyph unicode="/" horiz-adv-x="411" d="M40 0L282 810H371L128 0H40Z" />
<glyph unicode="0" horiz-adv-x="543" d="M272 -14Q199 -14 151 16T79 98T55 220V583Q55 654 78 707T149 791T272 821Q346 821 393 791T464 708T487 583V220Q487 151 463 99T391 16T272 -14ZM272 122Q299 122 311 139T327 179T331 223V580Q331 602 328 626T312
667T272 685Q244 685 232 668T216 626T212 580V223Q212 203 216 180T233 139T272 122Z" />
<glyph unicode="1" horiz-adv-x="390" d="M141 0V650Q132 645 117 640T83 628T49 616T24 606V720Q36 726 56 736T100 758T143 784T175 810H295V0H141Z" />
<glyph unicode="2" horiz-adv-x="506" d="M41 0V109L238 412Q260 446 279 477T311 540T324 610Q324 649 309 669T266 690Q236 690 220 674T198 630T192 571V533H41V573Q41 645 63 701T134 788T262 820Q369 820 423 764T477 607Q477 558 462 517T423 437T370 357L214
122H455V0H41Z" />
<glyph unicode="3" horiz-adv-x="506" d="M256 -14Q175 -14 128 16T59 102T38 230V259H192Q192 257 192 249T192 232Q193 193 198 168T218 129T258 116Q285 116 298 129T316 169T321 233Q321 294 303 327T231 362Q230 362 221 362T204 362V476Q210 476 216 476T228
476Q282 476 301 505T321 596Q321 644 307 671T255 698Q217 698 205 668T192 591Q192 583 192 574T192 555H38V599Q38 670 64 719T138 795T255 821Q324 821 373 796T447 723T473 604Q473 533 444 486T371 426Q401 416 424 393T460 332T473 236Q473 163 452 107T383
18T256 -14Z" />
<glyph unicode="4" horiz-adv-x="515" d="M274 0V189H28V310L239 810H419V307H497V189H419V0H274ZM150 307H274V651L150 307Z" />
<glyph unicode="5" horiz-adv-x="502" d="M252 -14Q167 -14 122 17T61 104T44 235H193Q193 191 198 161T218 116T262 102Q291 103 304 124T320 184T323 276Q323 319 318 352T299 404T254 423Q227 423 210 404T184 350H52L63 810H435V677H190L181 498Q193 513 221
524T283 537Q346 543 387 513T449 425T469 282Q469 218 461 164T430 70T364 8T252 -14Z" />
<glyph unicode="6" horiz-adv-x="531" d="M272 -11Q195 -11 147 23T76 118T53 255V543Q53 622 71 685T137 784T271 820Q346 820 390 797T455 727T475 614Q475 611 475 608T476 601H330Q330 652 320 677T272 702Q248 702 235 687T216 637T210 539V456Q223 478 250
490T314 503Q378 505 416 475T472 391T489 270Q489 188 469 124T402 25T272 -11ZM274 104Q299 104 311 121T328 169T333 244Q333 286 331 317T315 367T272 385Q258 385 246 380T224 366T210 348V219Q210 189 215 163T235 120T274 104Z" />
<glyph unicode="7" horiz-adv-x="428" d="M71 0L241 692H20V810H392V708L221 0H71Z" />
<glyph unicode="8" horiz-adv-x="516" d="M258 -12Q178 -12 130 19T62 108T41 238Q41 271 47 300T65 353T94 395T136 426Q103 450 79 493T53 604Q52 671 75 719T144 794T258 820Q327 820 372 794T440 720T461 604Q460 536 437 493T379 426Q403 414 420 396T450
353T468 300T475 238Q477 165 456 108T387 20T258 -12ZM258 103Q287 103 301 123T319 172T323 228Q324 260 320 290T301 339T258 358Q230 358 216 339T197 291T192 228Q192 201 196 172T214 123T258 103ZM258 484Q278 484 290 499T309 542T315 608Q315 651 302
677T258 704Q228 704 214 678T199 609Q199 571 204 543T223 499T258 484Z" />
<glyph unicode="9" horiz-adv-x="530" d="M258 -11Q183 -11 138 12T73 82T53 196Q53 199 53 202T53 208H199Q199 157 209 132T259 107Q283 107 296 122T314 173T319 270V353Q305 331 278 319T216 306Q151 305 112 337T57 425T40 547Q40 630 61 691T130 786T258
820Q335 820 383 788T453 697T475 561V266Q475 187 457 124T392 25T258 -11ZM259 424Q282 424 296 436T319 461V590Q319 621 314 647T296 689T258 705Q233 705 220 688T203 640T198 565Q198 524 201 492T216 442T259 424Z" />
<glyph unicode=":" horiz-adv-x="261" d="M66 413V557H208V413H66ZM66 65V208H208V65H66Z" />
<glyph unicode=";" horiz-adv-x="270" d="M89 -102L76 -51Q105 -47 124 -30T144 28H66V173H210V44Q210 -25 181 -63T89 -102ZM65 427V573H209V427H65Z" />
<glyph unicode="&lt;" horiz-adv-x="393" d="M335 86L31 300V422L335 636V502L140 361L335 220V86Z" />
<glyph unicode="=" horiz-adv-x="437" d="M61 441V536H376V441H61ZM61 254V349H376V254H61Z" />
<glyph unicode="&gt;" horiz-adv-x="393" d="M55 86V220L251 362L55 502V636L360 422V300L55 86Z" />
<glyph unicode="?" horiz-adv-x="485" d="M136 211V339Q182 376 219 419T277 510T299 613Q299 652 284 671T237 691Q210 691 194 675T178 632Q178 616 181 604T189 578L52 547Q45 569 41 590T37 634Q37 721 89 770T240 820Q340 820 394 767T448 616Q448 554 427
500T367 399T273 309V211H136ZM131 0V145H279V0H131Z" />
<glyph unicode="@" horiz-adv-x="940" d="M472 -128Q364 -128 283 -97T147 -6T71 140T57 336Q66 446 102 534T201 683T347 777T536 810Q638 810 711 778T830 689T894 555T906 391Q903 340 887 289T839 194T762 126T655 100Q628 100 602 108T558 133T531 177Q521
150 496 130T436 106Q382 102 343 128T286 201T268 307Q270 353 284 406T326 505T397 581T497 611Q519 611 533 600T556 574T570 551L580 605H698L653 269Q651 256 650 237T651 203T666 184Q689 180 711 193T753 235T785 303T801 388Q808 461 796 520T750 624T661
692T525 716Q441 716 378 687T270 607T202 487T171 339Q165 268 172 210T203 106T264 30T358 -17T486 -33Q512 -33 546 -29T615 -18T681 -1L699 -96Q643 -109 585 -118T472 -128ZM468 209Q477 210 497 219T526 253L558 489Q555 495 545 498T528 501Q488 501 460
472T416 398T400 306Q400 279 406 256T428 220T468 209Z" />
<glyph unicode="A" horiz-adv-x="538" d="M21 0L178 810H361L517 0H364L335 178H207L176 0H21ZM222 279H319L270 606L222 279Z" />
<glyph unicode="B" horiz-adv-x="574" d="M61 0V810H266Q319 810 364 801T443 769T496 706T515 600Q515 551 501 517T461 462T397 435Q444 428 476 403T524 337T540 238Q540 177 525 132T479 58T405 15T303 0H61ZM226 116H272Q334 116 357 147T381 240Q381 288
370 316T335 358T269 372H226V116ZM226 483H267Q310 483 332 495T362 533T371 596Q371 633 359 655T321 688T256 698H226V483Z" />
<glyph unicode="C" horiz-adv-x="553" d="M286 -11Q196 -11 144 23T70 117T49 258V549Q49 633 70 693T143 787T286 820Q373 820 422 791T492 709T513 586V518H353V594Q353 622 350 646T334 686T287 702Q254 702 239 686T220 645T216 588V220Q216 186 221 161T242
122T287 108Q319 108 332 123T349 165T353 220V299H513V232Q513 161 493 107T424 21T286 -11Z" />
<glyph unicode="D" horiz-adv-x="573" d="M61 0V810H259Q362 810 419 784T501 701T525 556V261Q525 171 501 113T421 28T263 0H61ZM226 115H261Q307 115 326 129T351 172T356 243V577Q356 619 350 644T324 682T260 694H226V115Z" />
<glyph unicode="E" horiz-adv-x="438" d="M61 0V810H414V696H226V481H371V366H226V112H416V0H61Z" />
<glyph unicode="F" horiz-adv-x="425" d="M61 0V810H403V698H226V479H376V364H226V0H61Z" />
<glyph unicode="G" horiz-adv-x="572" d="M268 -12Q186 -12 138 22T70 120T49 268V539Q49 626 70 689T143 786T286 820Q373 820 423 791T496 709T518 583V536H357V593Q357 625 353 649T335 688T288 702Q255 702 240 685T221 642T217 585V226Q217 192 223 165T245
123T293 108Q324 108 341 124T364 167T371 230V316H292V416H520V0H412L402 73Q386 36 354 12T268 -12Z" />
<glyph unicode="H" horiz-adv-x="600" d="M63 0V810H228V477H371V810H536V0H371V359H228V0H63Z" />
<glyph unicode="I" horiz-adv-x="290" d="M63 0V810H227V0H63Z" />
<glyph unicode="J" horiz-adv-x="339" d="M12 -21V95Q41 95 61 98T92 111T108 139T113 186V810H278V179Q278 112 262 68T206 1T92 -21H12Z" />
<glyph unicode="K" horiz-adv-x="552" d="M61 0V810H226V468L372 810H532L380 446L543 0H377L252 363L226 317V0H61Z" />
<glyph unicode="L" horiz-adv-x="433" d="M61 0V810H226V112H416V0H61Z" />
<glyph unicode="M" horiz-adv-x="695" d="M58 0L72 810H247L347 299L454 810H623L637 0H517L504 549L401 0H298L190 553L179 0H58Z" />
<glyph unicode="N" horiz-adv-x="554" d="M61 0V810H176L356 388V810H492V0H382L202 448V0H61Z" />
<glyph unicode="O" horiz-adv-x="576" d="M287 -11Q198 -11 146 21T72 112T49 255V557Q49 640 71 699T146 789T287 820Q377 820 429 789T504 699T527 557V255Q527 172 505 113T430 21T287 -11ZM287 108Q319 108 334 122T354 161T359 214V597Q359 625 354 649T334
687T287 702Q257 702 242 688T222 649T217 597V214Q217 186 221 162T241 123T287 108Z" />
<glyph unicode="P" horiz-adv-x="552" d="M61 0V810H318Q391 810 437 783T505 703T528 577Q528 490 499 441T418 372T301 351H226V0H61ZM226 467H284Q320 467 339 478T366 515T373 579Q373 616 368 641T343 680T283 694H226V467Z" />
<glyph unicode="Q" horiz-adv-x="576" d="M466 -160Q443 -149 413 -126T354 -73T305 -10Q301 -11 297 -11T287 -11Q198 -11 146 21T72 112T49 255V557Q49 640 71 699T146 789T287 820Q377 820 429 789T504 699T527 557V255Q527 197 517 151T482 70T418 16Q431
2 445 -12T473 -38T500 -58L466 -160ZM287 108Q319 108 334 122T354 161T359 214V597Q359 625 354 649T334 687T287 702Q256 702 241 688T222 649T217 597V214Q217 186 221 162T241 123T287 108Z" />
<glyph unicode="R" horiz-adv-x="583" d="M61 0V810H271Q353 810 411 792T501 726T533 596Q533 546 525 508T495 441T434 395L546 0H377L284 367H226V0H61ZM226 465H274Q314 465 337 478T369 517T379 583Q379 639 359 668T282 698H226V465Z" />
<glyph unicode="S" horiz-adv-x="505" d="M271 -11Q196 -11 146 16T71 99T41 241L183 265Q185 215 193 182T219 132T263 115Q295 115 306 135T318 181Q318 232 294 266T229 336L145 409Q100 447 72 495T43 613Q43 713 101 766T262 820Q323 820 362 800T422 747T452
674T463 595L322 574Q320 611 316 639T298 683T257 699Q228 699 214 678T200 630Q200 587 219 560T273 502L355 430Q406 386 442 330T479 190Q479 133 453 87T381 15T271 -11Z" />
<glyph unicode="T" horiz-adv-x="438" d="M137 0V687H12V810H426V687H303V0H137Z" />
<glyph unicode="U" horiz-adv-x="578" d="M289 -11Q197 -11 146 20T75 111T54 256V810H217V233Q217 203 221 174T241 127T289 109Q322 109 337 127T357 174T361 233V810H524V256Q524 171 504 112T432 21T289 -11Z" />
<glyph unicode="V" horiz-adv-x="522" d="M176 0L22 810H165L261 250L351 810H500L346 0H176Z" />
<glyph unicode="W" horiz-adv-x="704" d="M134 0L29 810H169L225 315L296 809H407L481 316L537 810H675L571 0H431L352 513L277 0H134Z" />
<glyph unicode="X" horiz-adv-x="508" d="M8 0L168 433L14 810H170L266 577L347 810H486L338 395L500 0H346L240 255L147 0H8Z" />
<glyph unicode="Y" horiz-adv-x="490" d="M167 0V321L9 810H164L251 525L332 810H482L326 321V0H167Z" />
<glyph unicode="Z" horiz-adv-x="430" d="M31 0V102L237 698H41V810H402V720L190 112H403V0H31Z" />
<glyph unicode="[" horiz-adv-x="334" d="M54 -185V810H299V749H177V-123H298V-185H54Z" />
<glyph unicode="\" horiz-adv-x="411" d="M282 0L40 810H129L371 0H282Z" />
<glyph unicode="]" horiz-adv-x="321" d="M23 -185V-123H144L143 748H22V810H267V-185H23Z" />
<glyph unicode="^" horiz-adv-x="469" d="M31 478L172 810H296L438 478H308L235 683L160 478H31Z" />
<glyph unicode="_" horiz-adv-x="363" d="M0 -160V-57H363V-160H0Z" />
<glyph unicode="`" horiz-adv-x="301" d="M166 609L44 810H198L258 609H166Z" />
<glyph unicode="a" horiz-adv-x="465" d="M167 -10Q126 -10 97 11T52 64T37 130Q37 184 58 221T113 283T189 326T273 359V413Q273 432 270 446T259 467T234 475Q218 475 210 469T198 450T193 422L190 382L47 388Q52 490 100 539T247 588Q335 588 377 540T419 412V143Q419
109 420 83T424 36T429 0H293Q290 22 286 48T280 83Q270 47 242 19T167 -10ZM222 97Q233 97 243 102T260 115T273 130V289Q252 276 234 264T203 236T183 203T176 162Q176 132 188 115T222 97Z" />
<glyph unicode="b" horiz-adv-x="493" d="M322 -10Q290 -10 260 5T203 44V0H52V810H203V535Q231 560 262 574T326 588Q361 588 385 573T424 531T445 473T451 408V182Q451 126 437 83T395 15T322 -10ZM255 91Q273 91 283 102T296 133T300 175V417Q300 438 296 455T283
482T255 493Q241 493 228 487T203 471V109Q215 101 228 96T255 91Z" />
<glyph unicode="c" horiz-adv-x="456" d="M233 -10Q169 -10 126 14T62 84T40 191V386Q40 451 61 495T126 564T233 588Q295 588 337 569T399 510T420 412V357H276V416Q276 442 272 456T258 477T233 483Q218 483 209 476T196 451T192 402V175Q192 128 202 112T234
95Q250 95 259 102T272 124T276 162V232H420V169Q420 111 399 71T336 10T233 -10Z" />
<glyph unicode="d" horiz-adv-x="490" d="M179 -10Q113 -10 78 37T42 181V393Q42 449 56 493T101 562T178 588Q209 588 237 575T288 542V810H439V0H288V43Q263 19 236 5T179 -10ZM240 90Q250 90 262 94T288 107V475Q277 481 265 485T241 490Q215 490 205 468T194
415V171Q194 148 198 130T212 101T240 90Z" />
<glyph unicode="e" horiz-adv-x="460" d="M234 -10Q170 -10 127 13T62 82T40 192V386Q40 452 62 496T128 564T234 588Q300 588 341 564T401 494T421 382V281H189V169Q189 144 194 128T210 106T235 99Q249 99 259 105T275 126T280 163V218H420V170Q420 82 372 36T234
-10ZM189 353H280V410Q280 435 275 450T260 472T233 479Q218 479 209 472T194 448T189 398V353Z" />
<glyph unicode="f" horiz-adv-x="313" d="M75 0V475H17V578H75V618Q75 670 85 708T128 767T226 788Q246 788 263 787T303 783V671Q295 673 286 674T267 676Q246 676 236 664T226 624V578H303V475H226V0H75Z" />
<glyph unicode="g" horiz-adv-x="487" d="M232 -196Q169 -196 123 -183T50 -145T24 -79Q24 -52 35 -31T67 7T112 35Q77 45 58 66T38 120Q38 155 55 180T102 231Q72 256 57 293T42 386Q42 451 65 496T132 564T240 588Q285 588 318 576T373 539Q383 554 402 570T445
599L465 608L501 532Q491 529 474 522T439 507T409 492Q419 471 425 442T431 384Q431 323 410 278T347 209T240 185Q215 185 193 189T150 199Q144 191 140 182T135 162Q135 150 146 143T188 133L327 118Q400 110 434 72T469 -31Q469 -84 445 -121T369 -177T232
-196ZM250 -85Q305 -85 334 -75T363 -36Q363 -22 356 -13T330 3T278 12L174 22Q164 14 156 5T143 -14T138 -36Q138 -60 163 -72T250 -85ZM240 277Q256 277 266 283T281 302T288 336T290 386Q290 415 288 435T281 469T266 489T240 495Q225 495 215 489T199 470T192
436T190 386Q190 358 192 338T199 304T214 284T240 277Z" />
<glyph unicode="h" horiz-adv-x="495" d="M53 0V810H203V525Q235 556 270 572T346 588Q381 588 403 570T437 523T448 456V0H297V431Q297 455 290 467T262 479Q250 479 235 473T203 455V0H53Z" />
<glyph unicode="i" horiz-adv-x="257" d="M54 0V578H205V0H54ZM53 673V786H205V673H53Z" />
<glyph unicode="j" horiz-adv-x="267" d="M69 -173Q48 -173 28 -170T-11 -161V-53Q-5 -54 3 -55T18 -56Q34 -56 44 -51T59 -33T65 -3V578H216V-21Q216 -89 179 -131T69 -173ZM65 673V786H216V673H65Z" />
<glyph unicode="k" horiz-adv-x="517" d="M52 0V810H202V354L347 578H515L365 343L513 0H350L247 279L202 220V0H52Z" />
<glyph unicode="l" horiz-adv-x="264" d="M59 0V810H210V0H59Z" />
<glyph unicode="m" horiz-adv-x="737" d="M52 0V578H199V530Q230 562 264 575T335 589Q370 589 395 572T433 519Q467 557 504 573T580 589Q612 589 637 573T676 526T690 450V0H543V435Q543 463 534 474T505 486Q493 486 476 479T444 459Q444 457 444 455T444 450V0H299V435Q299
463 289 474T260 486Q247 486 231 479T199 459V0H52Z" />
<glyph unicode="n" horiz-adv-x="493" d="M52 0V578H203V520Q234 551 268 569T342 588Q378 588 400 570T434 523T445 456V0H295V431Q295 455 288 467T259 479Q247 479 233 473T203 455V0H52Z" />
<glyph unicode="o" horiz-adv-x="471" d="M235 -10Q173 -10 129 12T63 78T40 185V393Q40 457 62 500T129 565T235 588Q297 588 341 566T408 500T431 393V185Q431 121 408 78T341 13T235 -10ZM236 92Q255 92 265 102T278 131T281 174V403Q281 428 278 446T265 475T236
486Q217 486 207 475T194 446T190 403V174Q190 150 193 132T207 103T236 92Z" />
<glyph unicode="p" horiz-adv-x="492" d="M52 -190V578H203V535Q230 560 261 574T325 588Q360 588 384 573T423 531T444 473T450 408V182Q450 126 436 83T394 15T320 -10Q289 -10 260 5T203 44V-190H52ZM253 91Q272 91 281 102T295 133T299 175V417Q299 438 295
455T281 482T254 493Q240 493 227 487T203 470V108Q215 100 227 96T253 91Z" />
<glyph unicode="q" horiz-adv-x="491" d="M290 -190V46Q264 20 237 5T179 -10Q112 -10 77 37T42 181V393Q42 449 56 493T101 562T178 588Q210 588 238 575T290 539V578H441V-190H290ZM241 90Q251 90 264 95T290 107V473Q279 481 267 485T242 490Q216 490 205 468T194
415V171Q194 148 198 130T213 101T241 90Z" />
<glyph unicode="r" horiz-adv-x="370" d="M54 0V578H205V485Q234 536 262 560T330 585Q337 585 342 585T353 582V430Q342 435 328 438T299 442Q271 442 248 428T205 386V0H54Z" />
<glyph unicode="s" horiz-adv-x="413" d="M220 -10Q145 -10 97 26T21 139L127 183Q142 141 163 118T212 94Q233 94 243 103T254 130Q254 154 238 173T181 226L127 272Q85 308 60 343T34 432Q34 479 57 514T120 568T206 588Q277 588 322 548T384 438L286 394Q280
416 270 435T245 468T210 481Q192 481 181 470T170 442Q170 424 188 404T240 356L294 308Q318 287 341 264T379 212T394 146Q394 96 370 61T307 8T220 -10Z" />
<glyph unicode="t" horiz-adv-x="344" d="M225 -6Q165 -6 131 12T84 66T71 151V479H14V578H71V753H224V578H308V479H224V165Q224 138 237 127T275 115Q287 115 298 116T318 119V1Q304 -1 278 -3T225 -6Z" />
<glyph unicode="u" horiz-adv-x="490" d="M150 -10Q115 -10 92 8T57 56T46 122V578H197V144Q197 120 205 108T234 95Q246 95 259 101T287 117V578H438V0H287V54Q257 25 223 8T150 -10Z" />
<glyph unicode="v" horiz-adv-x="413" d="M127 0L11 578H157L210 189L260 578H405L288 0H127Z" />
<glyph unicode="w" horiz-adv-x="595" d="M109 0L22 578H148L194 229L246 578H356L403 223L455 578H573L484 0H355L299 343L238 0H109Z" />
<glyph unicode="x" horiz-adv-x="431" d="M11 0L135 314L16 578H167L234 430L293 578H414L296 293L427 0H275L201 167L138 0H11Z" />
<glyph unicode="y" horiz-adv-x="436" d="M62 -163V-57Q95 -57 116 -53T147 -39T158 -9Q158 6 152 32T137 90L5 578H148L222 223L282 578H426L292 -18Q280 -74 253 -105T186 -150T94 -163H62Z" />
<glyph unicode="z" horiz-adv-x="382" d="M34 0V98L197 467H48V578H355V488L191 111H356V0H34Z" />
<glyph unicode="{" horiz-adv-x="358" d="M329 -193Q253 -193 209 -183T144 -148T116 -83T110 19V112Q110 180 106 211T89 252T46 262V370Q76 370 89 379T106 421T110 521V614Q110 675 116 716T143 781T209 815T329 826V723Q303 723 288 719T265 704T255 669T252
607V503Q252 420 235 374T170 316Q217 305 234 260T252 131V26Q252 -13 254 -36T264 -70T287 -86T329 -90V-193Z" />
<glyph unicode="|" horiz-adv-x="257" d="M65 -173L66 810H192V-173H65Z" />
<glyph unicode="}" horiz-adv-x="367" d="M38 -193V-90Q64 -90 79 -86T103 -71T113 -36T116 26V131Q116 214 133 259T198 316Q151 327 134 373T116 503V607Q116 645 114 668T103 703T80 719T38 723V826Q114 826 158 816T224 781T251 716T258 614V521Q258 453 261
421T278 380T321 370V262Q292 262 279 253T262 212T258 112V19Q258 -42 252 -83T224 -148T159 -182T38 -193Z" />
<glyph unicode="~" horiz-adv-x="474" d="M320 339Q293 339 263 353T205 382T157 397Q146 397 126 385T88 351L39 416Q52 436 72 456T114 490T157 504Q185 504 215 490T272 462T319 447Q333 447 352 461T387 493L440 437Q429 415 409 392T366 354T320 339Z" />
<glyph unicode="&#xa0;" horiz-adv-x="250" />
<glyph unicode="&#xa1;" horiz-adv-x="231" d="M40 -161L94 449H146L190 -161H40ZM48 505V648H193V505H48Z" />
<glyph unicode="&#xa2;" horiz-adv-x="442" d="M205 -121V-8Q150 -3 113 22T58 91T39 191V386Q39 446 57 489T113 557T205 586V698H245V588Q304 586 342 566T400 507T420 412V357H275V413Q275 440 270 454T256 474T233 480Q218 480 208 473T194 448T189 399V178Q189
130 200 115T233 99Q248 99 257 106T270 127T275 165V232H420V169Q420 113 401 74T342 14T245 -10V-121H205Z" />
<glyph unicode="&#xa3;" horiz-adv-x="470" d="M17 0V84L77 111V328H17V445H77V536Q77 595 82 646T107 737T164 798T267 820Q338 820 375 793T427 719T442 610Q442 603 442 596T442 584H312Q312 614 310 639T299 679T268 694Q247 694 238 677T226 631T223 563V444H342V328H223V126H437V0H17Z"
/>
<glyph unicode="&#xa4;" horiz-adv-x="554" d="M55 186L40 201L120 280Q95 308 80 345T65 423Q65 464 80 501T120 566L40 645L55 660L134 581Q162 607 198 622T277 637Q319 637 355 622T420 581L499 660L514 645L435 566Q460 538 474 501T488 423Q488 382 474
345T434 280L514 201L499 186L420 265Q392 239 356 224T277 209Q235 208 199 223T134 265L55 186ZM277 254Q324 254 361 276T419 338T441 423Q441 470 420 508T361 569T277 592Q231 592 194 569T135 508T113 423Q113 377 135 338T194 277T277 254Z" />
<glyph unicode="&#xa5;" horiz-adv-x="471" d="M161 0V119H76V197H161V263H76V343H143L3 810H158L245 482L325 810H476L338 343H404V263H319V197H404V119H319V0H161Z" />
<glyph unicode="&#xa6;" horiz-adv-x="216" d="M54 402V810H162V402H54ZM54 -175V233H162V-175H54Z" />
<glyph unicode="&#xa7;" horiz-adv-x="463" d="M229 -6Q177 -6 141 15T82 73T47 155L149 183Q155 166 166 147T194 115T231 101Q258 101 273 114T291 151Q292 168 285 182T262 211T220 242L126 302Q92 324 68 354T47 432Q50 477 75 507T133 549Q103 568 75 602T43
677Q42 727 66 762T134 815T230 834Q282 834 319 812T381 753T416 670L315 644Q309 664 300 683T274 715T233 727Q209 726 194 714T179 678Q179 659 189 646T213 623T237 606L324 552Q362 528 387 494T411 412Q411 370 389 342T333 293Q370 263 392 231T414 155Q414
82 365 38T229 -6ZM253 353Q268 361 281 373T295 405Q295 415 288 429T262 455L212 486Q193 480 181 466T168 433Q168 422 174 411T190 393L253 353Z" />
<glyph unicode="&#xa8;" horiz-adv-x="420" d="M250 670V810H376V670H250ZM43 670V810H169V670H43Z" />
<glyph unicode="&#xa9;" horiz-adv-x="879" d="M440 -13Q333 -13 257 24T133 122T63 257T40 408Q40 483 63 557T133 693T257 790T440 827Q546 827 621 791T745 693T816 558T839 408Q839 332 817 258T746 122T623 24T440 -13ZM439 123Q386 123 347 137T281 177T242
240T229 323V499Q229 563 252 607T322 674T439 698Q507 698 552 679T620 622T643 525V475H487V526Q487 553 482 567T466 588T441 594Q423 594 412 587T396 561T391 511V308Q391 277 397 260T413 236T440 229Q458 229 468 236T482 258T487 296V354H643V299Q643 241
620 202T552 143T439 123ZM441 28Q533 28 599 60T709 146T773 267T794 407Q794 479 773 546T709 667T600 752T441 784Q349 784 282 753T172 667T109 546T88 407Q88 335 108 268T172 146T282 60T441 28Z" />
<glyph unicode="&#xaa;" horiz-adv-x="474" d="M172 315Q119 315 90 348T60 433Q60 475 79 504T129 554T198 588T278 616V670Q278 691 272 706T246 722Q231 722 223 714T212 690T205 646L76 649Q78 736 125 778T255 821Q311 821 345 801T396 743T412 656V323H293L286
389Q272 359 244 337T172 315ZM230 408Q244 408 257 416T278 438V563Q252 552 232 535T201 497T189 457Q189 434 201 421T230 408Z" />
<glyph unicode="&#xab;" horiz-adv-x="481" d="M437 38L247 271V326L437 558V407L339 298L437 189V38ZM225 38L36 271V326L225 558V407L128 298L225 189V38Z" />
<glyph unicode="&#xac;" horiz-adv-x="475" d="M357 216V364H45V467H432V216H357Z" />
<glyph unicode="&#xad;" horiz-adv-x="366" d="M64 303V403H309V303H64Z" />
<glyph unicode="&#xae;" horiz-adv-x="890" d="M445 -14Q339 -14 264 22T141 120T71 255T48 404Q48 480 70 554T141 688T264 785T446 822Q552 822 627 786T750 689T820 554T843 404Q843 329 821 255T751 120T628 23T445 -14ZM445 39Q533 39 596 70T701 153T762
271T782 404Q782 473 763 538T702 655T597 738T445 769Q356 769 292 739T187 656T126 538T106 405Q106 336 125 271T186 154T292 70T445 39ZM280 151V663H444Q502 663 542 650T603 605T624 522Q624 474 608 445T549 395L639 151H510L438 371H403V151H280ZM403 433H427Q474
433 490 454T507 515Q507 549 492 569T441 589H403V433Z" />
<glyph unicode="&#xaf;" horiz-adv-x="350" d="M55 736V810H295V736H55Z" />
<glyph unicode="&#xb0;" horiz-adv-x="521" d="M260 436Q202 436 159 460T91 527T67 629Q67 687 91 730T158 796T260 820Q319 820 363 797T431 730T456 629Q456 570 432 527T363 460T260 436ZM260 522Q306 522 331 552T356 629Q356 676 331 705T260 735Q215 735
190 706T164 629Q164 582 189 552T260 522Z" />
<glyph unicode="&#xb1;" d="M181 183V304H63V397H181V517H279V397H396V304H279V183H181ZM63 0V95H396V0H63Z" />
<glyph unicode="&#xb2;" horiz-adv-x="463" d="M80 433V509L197 629Q227 659 245 681T270 720T278 756Q278 781 268 793T237 805Q210 805 199 783T188 720H78V735Q78 781 94 817T146 876T239 898Q309 898 349 861T389 756Q389 705 366 668T299 587L236 524H393V433H80Z" />
<glyph unicode="&#xb3;" horiz-adv-x="464" d="M234 423Q176 423 142 440T94 488T80 559V575H188V571Q188 543 199 530T236 516Q257 516 268 529T279 567Q279 596 266 611T219 627H193V697H216Q248 697 261 711T275 754Q275 778 265 791T234 805Q209 805 199 790T188
750V746H80V762Q80 829 120 863T234 898Q303 898 344 867T386 774Q386 732 366 705T320 668Q347 659 368 635T389 558Q389 494 348 459T234 423Z" />
<glyph unicode="&#xb4;" horiz-adv-x="301" d="M54 609L115 810H269L146 609H54Z" />
<glyph unicode="&#xb5;" horiz-adv-x="480" d="M44 -184L43 578H194V147Q194 124 201 112T229 99Q241 99 254 105T282 121V578H433V0H282V48Q268 33 252 21T218 4Q212 2 206 1T195 -1V-184H44Z" />
<glyph unicode="&#xb6;" horiz-adv-x="515" d="M190 -96V495Q121 497 78 537T34 653Q34 711 60 745T130 795T227 810H448V-96H361V726H281V-96H190Z" />
<glyph unicode="&#xb7;" horiz-adv-x="215" d="M37 305V448H181V305H37Z" />
<glyph unicode="&#xb8;" horiz-adv-x="353" d="M143 -268Q124 -268 105 -265T68 -256V-190Q80 -193 94 -195T124 -198Q150 -198 168 -190T186 -162Q186 -143 173 -132T139 -116T95 -109V0H153V-64Q213 -64 249 -89T285 -164Q285 -201 266 -224T214 -257T143 -268Z" />
<glyph unicode="&#xb9;" horiz-adv-x="368" d="M160 433V761L68 725V822L199 888H273V433H160Z" />
<glyph unicode="&#xba;" horiz-adv-x="474" d="M237 314Q183 314 146 333T89 388T69 477V659Q69 739 113 780T237 822Q315 822 360 780T406 659V477Q406 426 386 390T327 334T237 314ZM237 408Q255 408 264 417T277 442T281 481V656Q281 678 278 694T265 719T237
728Q219 728 209 719T195 694T191 656V481Q191 460 195 444T209 418T237 408Z" />
<glyph unicode="&#xbb;" horiz-adv-x="491" d="M48 38V189L149 299L48 407V558L241 326V271L48 38ZM259 38V189L360 299L259 407V558L452 326V271L259 38Z" />
<glyph unicode="&#xbc;" horiz-adv-x="872" d="M394 611V939L302 903V1000L433 1066H507V611H394ZM181 0L564 810H659L277 0H181ZM639 0V102H463V173L658 455H752V175H796V102H752V0H639ZM546 175H639L638 311L546 175Z" />
<glyph unicode="&#xbd;" horiz-adv-x="906" d="M380 611V939L288 903V1000L419 1066H493V611H380ZM167 0L550 810H645L263 0H167ZM533 0V76L650 196Q680 226 698 248T723 287T731 323Q731 348 721 360T690 372Q663 372 652 350T641 287H531V302Q531 348 547 384T599
443T692 465Q762 465 802 428T842 323Q842 272 819 235T752 154L689 91H846V0H533Z" />
<glyph unicode="&#xbe;" horiz-adv-x="912" d="M470 601Q412 601 378 618T330 666T316 737V753H424V749Q424 721 435 708T472 694Q493 694 504 707T515 745Q515 774 502 789T455 805H429V875H452Q484 875 497 889T511 932Q511 956 501 969T470 983Q445 983 435
968T424 928V924H316V940Q316 1007 356 1041T470 1076Q539 1076 580 1045T622 952Q622 910 602 883T556 846Q583 837 604 813T625 736Q625 672 584 637T470 601ZM253 0L636 810H731L349 0H253ZM712 0V102H536V173L731 455H825V175H869V102H825V0H712ZM619 175H712L711
311L619 175Z" />
<glyph unicode="&#xbf;" horiz-adv-x="485" d="M348 428V300Q302 263 265 220T207 129T185 26Q185 -13 200 -32T247 -52Q274 -52 290 -36T306 7Q306 23 303 35T295 61L432 92Q439 70 443 49T447 5Q447 -82 395 -131T244 -181Q144 -181 90 -128T36 23Q36 85 57
139T117 240T211 330V428H348ZM353 639V494H205V639H353Z" />
<glyph unicode="&#xc0;" horiz-adv-x="538" d="M21 0L178 810H361L517 0H364L335 178H207L176 0H21ZM222 279H319L270 606L222 279ZM227 871L103 1071H258L318 871H227Z" />
<glyph unicode="&#xc1;" horiz-adv-x="538" d="M21 0L178 810H361L517 0H364L335 178H207L176 0H21ZM222 279H319L270 606L222 279ZM222 871L284 1071H437L314 871H222Z" />
<glyph unicode="&#xc2;" horiz-adv-x="538" d="M21 0L178 810H361L517 0H364L335 178H207L176 0H21ZM222 279H319L270 606L222 279ZM112 878L205 1066H333L428 878H317L269 997L222 878H112Z" />
<glyph unicode="&#xc3;" horiz-adv-x="538" d="M21 0L178 810H361L517 0H364L335 178H207L176 0H21ZM222 279H319L270 606L222 279ZM350 907Q324 907 303 919T263 942T224 954Q203 954 196 943T188 913H114Q114 952 121 982T148 1030T202 1048Q227 1048 246 1037T285
1015T325 1003Q342 1003 349 1013T357 1042H426Q426 1010 422 979T401 928T350 907Z" />
<glyph unicode="&#xc4;" horiz-adv-x="538" d="M21 0L178 810H361L517 0H364L335 178H207L176 0H21ZM222 279H319L270 606L222 279ZM311 902V1042H437V902H311ZM103 902V1042H229V902H103Z" />
<glyph unicode="&#xc5;" horiz-adv-x="538" d="M21 0L178 810H361L517 0H364L335 178H207L176 0H21ZM222 279H319L270 606L222 279ZM269 848Q222 848 188 876T154 958Q154 1012 188 1040T269 1068Q317 1068 351 1040T386 958Q386 905 352 877T269 848ZM269 905Q294
905 307 920T321 958Q321 981 308 996T269 1012Q245 1012 232 997T218 958Q218 936 231 921T269 905Z" />
<glyph unicode="&#xc6;" horiz-adv-x="692" d="M-21 0L329 801H671V687H494V477H619V361H494V113H671V0H350V177H215L143 0H-21ZM250 282H350V549L250 282Z" />
<glyph unicode="&#xc7;" horiz-adv-x="553" d="M286 -11Q196 -11 144 23T70 117T49 258V549Q49 633 70 693T143 787T286 820Q373 820 422 791T492 709T513 586V518H353V594Q353 622 350 646T334 686T287 702Q254 702 239 686T220 645T216 588V220Q216 186 221
161T242 122T287 108Q319 108 332 123T349 165T353 220V299H513V232Q513 161 493 107T424 21T286 -11ZM296 -268Q277 -268 258 -265T221 -256V-190Q233 -193 247 -195T277 -198Q303 -198 321 -190T339 -162Q339 -143 326 -132T292 -116T248 -109V0H306V-64Q366
-64 402 -89T438 -164Q438 -201 419 -224T367 -257T296 -268Z" />
<glyph unicode="&#xc8;" horiz-adv-x="438" d="M61 0V810H414V696H226V481H371V366H226V112H416V0H61ZM197 871L73 1071H228L288 871H197Z" />
<glyph unicode="&#xc9;" horiz-adv-x="438" d="M61 0V810H414V696H226V481H371V366H226V112H416V0H61ZM192 871L254 1071H407L284 871H192Z" />
<glyph unicode="&#xca;" horiz-adv-x="438" d="M61 0V810H414V696H226V481H371V366H226V112H416V0H61ZM82 878L175 1066H303L398 878H287L239 997L192 878H82Z" />
<glyph unicode="&#xcb;" horiz-adv-x="438" d="M61 0V810H414V696H226V481H371V366H226V112H416V0H61ZM281 902V1042H407V902H281ZM73 902V1042H199V902H73Z" />
<glyph unicode="&#xcc;" horiz-adv-x="290" d="M63 0V810H227V0H63ZM101 871L-23 1071H132L192 871H101Z" />
<glyph unicode="&#xcd;" horiz-adv-x="290" d="M63 0V810H227V0H63ZM96 871L158 1071H311L188 871H96Z" />
<glyph unicode="&#xce;" horiz-adv-x="290" d="M63 0V810H227V0H63ZM-14 878L79 1066H207L302 878H191L143 997L96 878H-14Z" />
<glyph unicode="&#xcf;" horiz-adv-x="290" d="M63 0V810H227V0H63ZM185 902V1042H311V902H185ZM-23 902V1042H103V902H-23Z" />
<glyph unicode="&#xd0;" horiz-adv-x="553" d="M54 0V374H8V458H54V810H253Q356 810 413 784T494 701T518 556V261Q518 171 495 113T414 28T257 0H54ZM219 115H255Q300 115 320 129T345 172T350 243V577Q350 619 344 644T318 682T254 694H219V458H265V374H219V115Z" />
<glyph unicode="&#xd1;" horiz-adv-x="554" d="M61 0V810H176L356 388V810H492V0H382L202 448V0H61ZM357 907Q331 907 310 919T270 942T231 954Q210 954 203 943T195 913H121Q121 952 128 982T155 1030T209 1048Q234 1048 253 1037T292 1015T332 1003Q349 1003
356 1013T364 1042H433Q433 1010 429 979T408 928T357 907Z" />
<glyph unicode="&#xd2;" horiz-adv-x="576" d="M287 -11Q198 -11 146 21T72 112T49 255V557Q49 640 71 699T146 789T287 820Q377 820 429 789T504 699T527 557V255Q527 172 505 113T430 21T287 -11ZM287 108Q319 108 334 122T354 161T359 214V597Q359 625 354
649T334 687T287 702Q257 702 242 688T222 649T217 597V214Q217 186 221 162T241 123T287 108ZM245 871L121 1071H276L336 871H245Z" />
<glyph unicode="&#xd3;" horiz-adv-x="576" d="M287 -11Q198 -11 146 21T72 112T49 255V557Q49 640 71 699T146 789T287 820Q377 820 429 789T504 699T527 557V255Q527 172 505 113T430 21T287 -11ZM287 108Q319 108 334 122T354 161T359 214V597Q359 625 354
649T334 687T287 702Q257 702 242 688T222 649T217 597V214Q217 186 221 162T241 123T287 108ZM240 871L302 1071H455L332 871H240Z" />
<glyph unicode="&#xd4;" horiz-adv-x="576" d="M287 -11Q198 -11 146 21T72 112T49 255V557Q49 640 71 699T146 789T287 820Q377 820 429 789T504 699T527 557V255Q527 172 505 113T430 21T287 -11ZM287 108Q319 108 334 122T354 161T359 214V597Q359 625 354
649T334 687T287 702Q257 702 242 688T222 649T217 597V214Q217 186 221 162T241 123T287 108ZM130 878L223 1066H351L446 878H335L287 997L240 878H130Z" />
<glyph unicode="&#xd5;" horiz-adv-x="576" d="M287 -11Q198 -11 146 21T72 112T49 255V557Q49 640 71 699T146 789T287 820Q377 820 429 789T504 699T527 557V255Q527 172 505 113T430 21T287 -11ZM287 108Q319 108 334 122T354 161T359 214V597Q359 625 354
649T334 687T287 702Q257 702 242 688T222 649T217 597V214Q217 186 221 162T241 123T287 108ZM368 907Q342 907 321 919T281 942T242 954Q221 954 214 943T206 913H132Q132 952 139 982T166 1030T220 1048Q245 1048 264 1037T303 1015T343 1003Q360 1003 367 1013T375
1042H444Q444 1010 440 979T419 928T368 907Z" />
<glyph unicode="&#xd6;" horiz-adv-x="576" d="M287 -11Q198 -11 146 21T72 112T49 255V557Q49 640 71 699T146 789T287 820Q377 820 429 789T504 699T527 557V255Q527 172 505 113T430 21T287 -11ZM287 108Q319 108 334 122T354 161T359 214V597Q359 625 354
649T334 687T287 702Q257 702 242 688T222 649T217 597V214Q217 186 221 162T241 123T287 108ZM329 902V1042H455V902H329ZM121 902V1042H247V902H121Z" />
<glyph unicode="&#xd7;" horiz-adv-x="464" d="M123 233L53 302L163 412L53 521L123 592L233 482L341 592L411 523L302 412L411 302L342 233L233 342L123 233Z" />
<glyph unicode="&#xd8;" horiz-adv-x="565" d="M129 -87L90 -71L426 883L466 869L129 -87ZM287 -11Q198 -11 146 21T72 112T49 255V557Q49 640 71 699T146 789T287 820Q377 820 429 789T504 699T527 557V255Q527 172 505 113T430 21T287 -11ZM287 108Q319 108
334 122T354 161T359 214V597Q359 625 354 649T334 687T287 702Q257 702 242 688T222 649T217 597V214Q217 186 221 162T241 123T287 108Z" />
<glyph unicode="&#xd9;" horiz-adv-x="578" d="M289 -11Q197 -11 146 20T75 111T54 256V810H217V233Q217 203 221 174T241 127T289 109Q322 109 337 127T357 174T361 233V810H524V256Q524 171 504 112T432 21T289 -11ZM246 871L122 1071H277L337 871H246Z" />
<glyph unicode="&#xda;" horiz-adv-x="578" d="M289 -11Q197 -11 146 20T75 111T54 256V810H217V233Q217 203 221 174T241 127T289 109Q322 109 337 127T357 174T361 233V810H524V256Q524 171 504 112T432 21T289 -11ZM241 871L303 1071H456L333 871H241Z" />
<glyph unicode="&#xdb;" horiz-adv-x="578" d="M289 -11Q197 -11 146 20T75 111T54 256V810H217V233Q217 203 221 174T241 127T289 109Q322 109 337 127T357 174T361 233V810H524V256Q524 171 504 112T432 21T289 -11ZM131 878L224 1066H352L447 878H336L288 997L241
878H131Z" />
<glyph unicode="&#xdc;" horiz-adv-x="578" d="M289 -11Q197 -11 146 20T75 111T54 256V810H217V233Q217 203 221 174T241 127T289 109Q322 109 337 127T357 174T361 233V810H524V256Q524 171 504 112T432 21T289 -11ZM330 902V1042H456V902H330ZM122 902V1042H248V902H122Z"
/>
<glyph unicode="&#xdd;" horiz-adv-x="490" d="M167 0V321L9 810H164L251 525L332 810H482L326 321V0H167ZM198 871L260 1071H413L290 871H198Z" />
<glyph unicode="&#xde;" horiz-adv-x="549" d="M54 0V810H219V702H306Q383 702 434 679T509 605T534 475Q534 406 520 360T476 286T401 246T294 234H219V0H54ZM219 353H279Q334 353 358 378T382 468Q382 527 360 554T285 581H219V353Z" />
<glyph unicode="&#xdf;" horiz-adv-x="536" d="M247 -14V103Q277 103 297 110T330 132T349 172T355 230Q355 269 344 297T312 341T256 357V473Q283 473 299 489T324 534T333 603Q333 654 318 684T264 714Q238 714 224 700T205 661T200 601V0H49V601Q49 659 69
709T134 790T253 821Q362 821 413 765T464 605Q464 545 437 501T350 430Q402 416 436 387T488 315T505 215Q505 155 488 112T439 41T358 0T247 -14Z" />
<glyph unicode="&#xe0;" horiz-adv-x="465" d="M167 -10Q126 -10 97 11T52 64T37 130Q37 184 58 221T113 283T189 326T273 359V413Q273 432 270 446T259 467T234 475Q218 475 210 469T198 450T193 422L190 382L47 388Q52 490 100 539T247 588Q335 588 377 540T419
412V143Q419 109 420 83T424 36T429 0H293Q290 22 286 48T280 83Q270 47 242 19T167 -10ZM222 97Q233 97 243 102T260 115T273 130V289Q252 276 234 264T203 236T183 203T176 162Q176 132 188 115T222 97ZM204 639L80 839H235L295 639H204Z" />
<glyph unicode="&#xe1;" horiz-adv-x="465" d="M167 -10Q126 -10 97 11T52 64T37 130Q37 184 58 221T113 283T189 326T273 359V413Q273 432 270 446T259 467T234 475Q218 475 210 469T198 450T193 422L190 382L47 388Q52 490 100 539T247 588Q335 588 377 540T419
412V143Q419 109 420 83T424 36T429 0H293Q290 22 286 48T280 83Q270 47 242 19T167 -10ZM222 97Q233 97 243 102T260 115T273 130V289Q252 276 234 264T203 236T183 203T176 162Q176 132 188 115T222 97ZM199 639L261 839H414L291 639H199Z" />
<glyph unicode="&#xe2;" horiz-adv-x="465" d="M167 -10Q126 -10 97 11T52 64T37 130Q37 184 58 221T113 283T189 326T273 359V413Q273 432 270 446T259 467T234 475Q218 475 210 469T198 450T193 422L190 382L47 388Q52 490 100 539T247 588Q335 588 377 540T419
412V143Q419 109 420 83T424 36T429 0H293Q290 22 286 48T280 83Q270 47 242 19T167 -10ZM222 97Q233 97 243 102T260 115T273 130V289Q252 276 234 264T203 236T183 203T176 162Q176 132 188 115T222 97ZM89 646L182 834H310L405 646H294L246 765L199 646H89Z"
/>
<glyph unicode="&#xe3;" horiz-adv-x="465" d="M167 -10Q126 -10 97 11T52 64T37 130Q37 184 58 221T113 283T189 326T273 359V413Q273 432 270 446T259 467T234 475Q218 475 210 469T198 450T193 422L190 382L47 388Q52 490 100 539T247 588Q335 588 377 540T419
412V143Q419 109 420 83T424 36T429 0H293Q290 22 286 48T280 83Q270 47 242 19T167 -10ZM222 97Q233 97 243 102T260 115T273 130V289Q252 276 234 264T203 236T183 203T176 162Q176 132 188 115T222 97ZM327 675Q301 675 280 687T240 710T201 722Q180 722 173
711T165 681H91Q91 720 98 750T125 798T179 816Q204 816 223 805T262 783T302 771Q319 771 326 781T334 810H403Q403 778 399 747T378 696T327 675Z" />
<glyph unicode="&#xe4;" horiz-adv-x="465" d="M167 -10Q126 -10 97 11T52 64T37 130Q37 184 58 221T113 283T189 326T273 359V413Q273 432 270 446T259 467T234 475Q218 475 210 469T198 450T193 422L190 382L47 388Q52 490 100 539T247 588Q335 588 377 540T419
412V143Q419 109 420 83T424 36T429 0H293Q290 22 286 48T280 83Q270 47 242 19T167 -10ZM222 97Q233 97 243 102T260 115T273 130V289Q252 276 234 264T203 236T183 203T176 162Q176 132 188 115T222 97ZM288 670V810H414V670H288ZM80 670V810H206V670H80Z" />
<glyph unicode="&#xe5;" horiz-adv-x="465" d="M167 -10Q126 -10 97 11T52 64T37 130Q37 184 58 221T113 283T189 326T273 359V413Q273 432 270 446T259 467T234 475Q218 475 210 469T198 450T193 422L190 382L47 388Q52 490 100 539T247 588Q335 588 377 540T419
412V143Q419 109 420 83T424 36T429 0H293Q290 22 286 48T280 83Q270 47 242 19T167 -10ZM222 97Q233 97 243 102T260 115T273 130V289Q252 276 234 264T203 236T183 203T176 162Q176 132 188 115T222 97ZM246 616Q199 616 165 644T131 726Q131 780 165 808T246
836Q294 836 328 808T363 726Q363 673 329 645T246 616ZM246 673Q271 673 284 688T298 726Q298 749 285 764T246 780Q222 780 209 765T195 726Q195 704 208 689T246 673Z" />
<glyph unicode="&#xe6;" horiz-adv-x="673" d="M187 -11Q117 -11 77 28T37 132Q37 188 60 223T121 280T206 313L270 329V408Q270 443 261 459T230 475Q215 475 206 467T191 439T186 388L39 392Q39 485 83 536T218 588Q277 588 310 562T348 499H331Q335 524 355
544T407 576T478 588Q557 588 594 549T632 450Q632 400 612 370T558 324T482 297L415 282V165Q415 135 422 117T452 98Q468 98 475 107T485 131T488 167V202H629V160Q629 106 611 68T557 9T467 -11Q435 -11 406 0T357 34T331 89Q320 57 299 35T249 1T187 -11ZM221
93Q237 93 247 100T264 123T270 162V259L236 245Q214 236 200 224T180 195T173 156Q173 138 178 124T193 102T221 93ZM414 353L438 358Q473 365 489 380T505 427Q505 448 495 462T462 476Q445 476 435 468T419 446T414 410V353Z" />
<glyph unicode="&#xe7;" horiz-adv-x="456" d="M233 -10Q169 -10 126 14T62 84T40 191V386Q40 451 61 495T126 564T233 588Q295 588 337 569T399 510T420 412V357H276V416Q276 442 272 456T258 477T233 483Q218 483 209 476T196 451T192 402V175Q192 128 202 112T234
95Q250 95 259 102T272 124T276 162V232H420V169Q420 111 399 71T336 10T233 -10ZM248 -268Q229 -268 210 -265T173 -256V-190Q185 -193 199 -195T229 -198Q255 -198 273 -190T291 -162Q291 -143 278 -132T244 -116T200 -109V0H258V-64Q318 -64 354 -89T390 -164Q390
-201 371 -224T319 -257T248 -268Z" />
<glyph unicode="&#xe8;" horiz-adv-x="460" d="M234 -10Q170 -10 127 13T62 82T40 192V386Q40 452 62 496T128 564T234 588Q300 588 341 564T401 494T421 382V281H189V169Q189 144 194 128T210 106T235 99Q249 99 259 105T275 126T280 163V218H420V170Q420 82
372 36T234 -10ZM189 353H280V410Q280 435 275 450T260 472T233 479Q218 479 209 472T194 448T189 398V353ZM189 639L65 839H220L280 639H189Z" />
<glyph unicode="&#xe9;" horiz-adv-x="460" d="M234 -10Q170 -10 127 13T62 82T40 192V386Q40 452 62 496T128 564T234 588Q300 588 341 564T401 494T421 382V281H189V169Q189 144 194 128T210 106T235 99Q249 99 259 105T275 126T280 163V218H420V170Q420 82
372 36T234 -10ZM189 353H280V410Q280 435 275 450T260 472T233 479Q218 479 209 472T194 448T189 398V353ZM184 639L246 839H399L276 639H184Z" />
<glyph unicode="&#xea;" horiz-adv-x="460" d="M234 -10Q170 -10 127 13T62 82T40 192V386Q40 452 62 496T128 564T234 588Q300 588 341 564T401 494T421 382V281H189V169Q189 144 194 128T210 106T235 99Q249 99 259 105T275 126T280 163V218H420V170Q420 82
372 36T234 -10ZM189 353H280V410Q280 435 275 450T260 472T233 479Q218 479 209 472T194 448T189 398V353ZM74 646L167 834H295L390 646H279L231 765L184 646H74Z" />
<glyph unicode="&#xeb;" horiz-adv-x="460" d="M234 -10Q170 -10 127 13T62 82T40 192V386Q40 452 62 496T128 564T234 588Q300 588 341 564T401 494T421 382V281H189V169Q189 144 194 128T210 106T235 99Q249 99 259 105T275 126T280 163V218H420V170Q420 82
372 36T234 -10ZM189 353H280V410Q280 435 275 450T260 472T233 479Q218 479 209 472T194 448T189 398V353ZM273 670V810H399V670H273ZM65 670V810H191V670H65Z" />
<glyph unicode="&#xec;" horiz-adv-x="268" d="M59 0V578H211V0H59ZM92 639L-32 839H123L183 639H92Z" />
<glyph unicode="&#xed;" horiz-adv-x="268" d="M59 0V578H211V0H59ZM87 639L149 839H302L179 639H87Z" />
<glyph unicode="&#xee;" horiz-adv-x="268" d="M59 0V578H211V0H59ZM-23 646L70 834H198L293 646H182L134 765L87 646H-23Z" />
<glyph unicode="&#xef;" horiz-adv-x="268" d="M59 0V578H211V0H59ZM176 670V810H302V670H176ZM-32 670V810H94V670H-32Z" />
<glyph unicode="&#xf0;" horiz-adv-x="510" d="M257 -13Q199 -13 153 11T81 85T54 214V361Q54 426 75 474T135 550T226 577Q251 577 271 571T306 555Q304 594 297 624T280 669L186 625L172 669L253 707Q241 724 209 733T123 743L130 839Q218 838 275 820T363 765L455
809L470 766L392 728Q407 700 422 660T447 564T458 429V220Q458 133 432 83T361 10T257 -13ZM260 90Q279 90 289 101T302 134T306 183Q306 218 306 252T306 321T306 390T306 459Q297 465 287 470T262 475Q237 475 224 458T207 400T202 288Q202 217 205 173T220
110T260 90Z" />
<glyph unicode="&#xf1;" horiz-adv-x="493" d="M52 0V578H203V520Q234 551 268 569T342 588Q378 588 400 570T434 523T445 456V0H295V431Q295 455 288 467T259 479Q247 479 233 473T203 455V0H52ZM327 675Q301 675 280 687T240 710T201 722Q180 722 173 711T165
681H91Q91 720 98 750T125 798T179 816Q204 816 223 805T262 783T302 771Q319 771 326 781T334 810H403Q403 778 399 747T378 696T327 675Z" />
<glyph unicode="&#xf2;" horiz-adv-x="471" d="M235 -10Q173 -10 129 12T63 78T40 185V393Q40 457 62 500T129 565T235 588Q297 588 341 566T408 500T431 393V185Q431 121 408 78T341 13T235 -10ZM236 92Q255 92 265 102T278 131T281 174V403Q281 428 278 446T265
475T236 486Q217 486 207 475T194 446T190 403V174Q190 150 193 132T207 103T236 92ZM192 639L68 839H223L283 639H192Z" />
<glyph unicode="&#xf3;" horiz-adv-x="471" d="M235 -10Q173 -10 129 12T63 78T40 185V393Q40 457 62 500T129 565T235 588Q297 588 341 566T408 500T431 393V185Q431 121 408 78T341 13T235 -10ZM236 92Q255 92 265 102T278 131T281 174V403Q281 428 278 446T265
475T236 486Q217 486 207 475T194 446T190 403V174Q190 150 193 132T207 103T236 92ZM187 639L249 839H402L279 639H187Z" />
<glyph unicode="&#xf4;" horiz-adv-x="471" d="M235 -10Q173 -10 129 12T63 78T40 185V393Q40 457 62 500T129 565T235 588Q297 588 341 566T408 500T431 393V185Q431 121 408 78T341 13T235 -10ZM236 92Q255 92 265 102T278 131T281 174V403Q281 428 278 446T265
475T236 486Q217 486 207 475T194 446T190 403V174Q190 150 193 132T207 103T236 92ZM77 646L170 834H298L393 646H282L234 765L187 646H77Z" />
<glyph unicode="&#xf5;" horiz-adv-x="471" d="M235 -10Q173 -10 129 12T63 78T40 185V393Q40 457 62 500T129 565T235 588Q297 588 341 566T408 500T431 393V185Q431 121 408 78T341 13T235 -10ZM236 92Q255 92 265 102T278 131T281 174V403Q281 428 278 446T265
475T236 486Q217 486 207 475T194 446T190 403V174Q190 150 193 132T207 103T236 92ZM315 675Q289 675 268 687T228 710T189 722Q168 722 161 711T153 681H79Q79 720 86 750T113 798T167 816Q192 816 211 805T250 783T290 771Q307 771 314 781T322 810H391Q391
778 387 747T366 696T315 675Z" />
<glyph unicode="&#xf6;" horiz-adv-x="471" d="M235 -10Q173 -10 129 12T63 78T40 185V393Q40 457 62 500T129 565T235 588Q297 588 341 566T408 500T431 393V185Q431 121 408 78T341 13T235 -10ZM236 92Q255 92 265 102T278 131T281 174V403Q281 428 278 446T265
475T236 486Q217 486 207 475T194 446T190 403V174Q190 150 193 132T207 103T236 92ZM276 670V810H402V670H276ZM68 670V810H194V670H68Z" />
<glyph unicode="&#xf7;" horiz-adv-x="433" d="M32 374V459H401V374H32ZM172 176V296H269V176H172ZM172 530V651H269V530H172Z" />
<glyph unicode="&#xf8;" horiz-adv-x="466" d="M102 -90L66 -75L359 672L398 657L102 -90ZM235 -10Q173 -10 129 12T63 78T40 185V393Q40 457 62 500T129 565T235 588Q297 588 341 566T408 500T431 393V185Q431 121 408 78T341 13T235 -10ZM236 92Q255 92 265
102T278 131T281 174V403Q281 428 278 446T265 475T236 486Q217 486 207 475T194 446T190 403V174Q190 150 193 132T207 103T236 92Z" />
<glyph unicode="&#xf9;" horiz-adv-x="490" d="M150 -10Q115 -10 92 8T57 56T46 122V578H197V144Q197 120 205 108T234 95Q246 95 259 101T287 117V578H438V0H287V54Q257 25 223 8T150 -10ZM202 639L78 839H233L293 639H202Z" />
<glyph unicode="&#xfa;" horiz-adv-x="490" d="M150 -10Q115 -10 92 8T57 56T46 122V578H197V144Q197 120 205 108T234 95Q246 95 259 101T287 117V578H438V0H287V54Q257 25 223 8T150 -10ZM197 639L259 839H412L289 639H197Z" />
<glyph unicode="&#xfb;" horiz-adv-x="490" d="M150 -10Q115 -10 92 8T57 56T46 122V578H197V144Q197 120 205 108T234 95Q246 95 259 101T287 117V578H438V0H287V54Q257 25 223 8T150 -10ZM87 646L180 834H308L403 646H292L244 765L197 646H87Z" />
<glyph unicode="&#xfc;" horiz-adv-x="490" d="M150 -10Q115 -10 92 8T57 56T46 122V578H197V144Q197 120 205 108T234 95Q246 95 259 101T287 117V578H438V0H287V54Q257 25 223 8T150 -10ZM286 670V810H412V670H286ZM78 670V810H204V670H78Z" />
<glyph unicode="&#xfd;" horiz-adv-x="436" d="M62 -163V-57Q95 -57 116 -53T147 -39T158 -9Q158 6 152 32T137 90L5 578H148L222 223L282 578H426L292 -18Q280 -74 253 -105T186 -150T94 -163H62ZM170 639L232 839H385L262 639H170Z" />
<glyph unicode="&#xfe;" horiz-adv-x="484" d="M48 -190V810H199V535Q227 560 258 574T321 588Q356 588 380 573T418 531T439 473T446 408V182Q446 126 432 83T389 15T316 -10Q285 -10 256 5T199 43V-190H48ZM249 91Q267 91 276 102T290 133T294 175V417Q294 438
290 455T277 482T249 493Q236 493 224 487T199 470V108Q210 100 222 96T249 91Z" />
<glyph unicode="&#xff;" horiz-adv-x="436" d="M62 -163V-57Q95 -57 116 -53T147 -39T158 -9Q158 6 152 32T137 90L5 578H148L222 223L282 578H426L292 -18Q280 -74 253 -105T186 -150T94 -163H62ZM259 670V810H385V670H259ZM51 670V810H177V670H51Z" />
<glyph unicode="&#x2013;" horiz-adv-x="498" d="M4 288V393H494V288H4Z" />
<glyph unicode="&#x2014;" horiz-adv-x="986" d="M4 315V419H983V315H4Z" />
<glyph unicode="&#x2018;" horiz-adv-x="224" d="M25 544Q25 572 25 600T26 652Q29 736 53 779T143 823L156 775Q119 773 108 748T97 680H163V544H25Z" />
<glyph unicode="&#x2019;" horiz-adv-x="224" d="M81 530L68 579Q105 580 116 605T127 673H62V810H199Q199 781 199 754T197 702Q195 618 171 575T81 530Z" />
<glyph unicode="&#x201a;" horiz-adv-x="236" d="M81 -114L68 -65Q105 -64 116 -39T127 29H62V166H199Q199 137 199 110T197 58Q195 -26 171 -69T81 -114Z" />
<glyph unicode="&#x201c;" horiz-adv-x="423" d="M25 544Q25 572 25 600T26 652Q29 736 53 779T143 823L156 775Q119 773 108 748T97 680H163V544H25ZM224 544Q224 572 224 600T225 652Q228 736 252 779T342 823L355 775Q318 773 307 748T296 680H362V544H224Z" />
<glyph unicode="&#x201d;" horiz-adv-x="423" d="M81 530L68 579Q105 580 116 605T127 673H62V810H199Q199 781 199 754T197 702Q195 618 171 575T81 530ZM280 530L267 579Q304 580 315 605T326 673H261V810H398Q398 781 398 754T396 702Q394 618 370 575T280 530Z" />
<glyph unicode="&#x201e;" horiz-adv-x="423" d="M266 -114L253 -65Q290 -64 301 -39T312 29H247V166H384Q384 137 384 110T382 58Q380 -26 356 -69T266 -114ZM81 -114L68 -65Q105 -64 116 -39T127 29H62V166H199Q199 137 199 110T197 58Q195 -26 171 -69T81 -114Z" />
<glyph unicode="&#x2022;" horiz-adv-x="454" d="M226 206Q183 206 146 225T85 282T61 375Q61 432 84 470T145 528T226 547Q270 547 307 528T367 470T391 375Q391 320 368 282T307 225T226 206Z" />
<glyph unicode="&#x2039;" horiz-adv-x="285" d="M244 26L39 248V326L244 547V395L134 288L244 178V26Z" />
<glyph unicode="&#x203a;" horiz-adv-x="279" d="M45 48V199L157 309L45 417V569L249 336V281L45 48Z" />
</font>
</defs>
</svg>
