<?xml version="1.0" standalone="no"?>
<!DOCTYPE svg PUBLIC "-//W3C//DTD SVG 1.1//EN" "http://www.w3.org/Graphics/SVG/1.1/DTD/svg11.dtd">
<svg xmlns="http://www.w3.org/2000/svg">
<defs >
<font id="Raleway" horiz-adv-x="488" ><font-face
    font-family="Raleway ExtraBold"
    units-per-em="1000"
    panose-1="2 11 9 3 3 1 1 6 0 3"
    ascent="940"
    descent="-234"
    alphabetic="0" />
<glyph unicode=" " glyph-name="space" horiz-adv-x="233" />
<glyph unicode="!" glyph-name="exclam" horiz-adv-x="333" d="M86 282V717H246V282H86ZM86 0V166H246V0H86Z" />
<glyph unicode="&quot;" glyph-name="quotedbl" horiz-adv-x="431" d="M57 498V726H192V498H57ZM239 498V726H374V498H239Z" />
<glyph unicode="#" glyph-name="numbersign" horiz-adv-x="738" d="M702 412H550L523 298H653V179H494L451 0H323L367 179H276L232 0H104L149 179H36V298H177L204 412H85V522H231L277 710H405L358 522H450L496 710H624L577 522H702V412ZM396 298L423 412H331L304
298H396Z" />
<glyph unicode="$" glyph-name="dollar" horiz-adv-x="641" d="M509 502Q506 506 492 515T455 534T405 554T349 568V432L381 424Q432 410 473 394T542 353T586 293T602 209Q602 152 582 112T529 47T452 8T360 -7V-123H291V-6Q222 0 155 22T33 80L105 223Q109 218
126 207T171 183T232 159T302 142V275L254 289Q205 304 169 321T110 362T75 415T63 485Q63 537 81 577T129 647T201 692T291 714V815H360V714Q425 708 482 685T581 638L509 502ZM426 193Q426 219 405 233T349 260V140Q426 143 426 193ZM232 511Q232 486 249 472T302
446V569Q232 563 232 511Z" />
<glyph unicode="%" glyph-name="percent" horiz-adv-x="816" d="M205 411Q169 411 138 423T84 456T48 505T34 566Q34 598 47 626T84 675T138 708T205 720Q241 720 272 708T326 675T363 626T376 566Q376 534 363 506T327 456T272 423T205 411ZM205 489Q230 489
247 511T265 566Q265 598 248 620T205 642Q180 642 163 620T145 566Q145 534 162 512T205 489ZM611 -10Q575 -10 544 2T490 35T454 84T440 144Q440 176 453 204T490 254T544 287T611 299Q647 299 678 287T732 254T769 205T782 144Q782 112 769 84T733 35T678 2T611
-10ZM611 68Q636 68 654 90T672 144Q672 176 654 198T611 221Q586 221 569 199T551 144Q551 112 568 90T611 68ZM103 56L385 380L641 719L713 655L440 339L174 -9L103 56Z" />
<glyph unicode="&amp;" glyph-name="ampersand" horiz-adv-x="729" d="M522 0L475 50Q431 20 382 5T282 -10Q224 -10 179 8T102 57T55 127T38 208Q38 240 47 267T71 318T107 361T149 398Q113 442 98 473T83 543Q83 584 98 616T140 672T203 707T283 719Q321 719
357 710T420 680T465 629T482 556Q482 499 452 456T374 376L485 258Q498 288 505 323T513 401H642Q641 327 625 268T579 160L732 0H522ZM299 115Q346 115 388 142L247 292Q221 272 206 252T191 207Q191 191 198 175T219 145T253 124T299 115ZM228 549Q228 533 238
520T274 480Q305 500 320 516T335 554Q335 576 321 589T283 602Q258 602 243 587T228 549Z" />
<glyph unicode="&apos;" glyph-name="quotesingle" horiz-adv-x="250" d="M57 497V726H192V497H57Z" />
<glyph unicode="(" glyph-name="parenleft" horiz-adv-x="325" d="M30 347Q30 398 42 449T74 552T122 657T182 764L304 714Q290 692 269 652T228 560T194 453T179 344Q179 263 213 178T300 -2L184 -59Q153 -13 125 37T76 138T43 242T30 347Z" />
<glyph unicode=")" glyph-name="parenright" horiz-adv-x="324" d="M294 347Q294 295 282 243T248 139T199 37T140 -59L24 -2Q77 92 111 177T145 344Q145 397 131 453T96 560T55 651T20 714L142 764Q174 710 201 657T249 552T282 449T294 347Z" />
<glyph unicode="*" glyph-name="asterisk" horiz-adv-x="354" d="M71 510L118 585L47 606L68 673L141 639L135 719H218L212 639L286 673L307 606L236 585L283 510L224 471L177 550L130 471L71 510Z" />
<glyph unicode="+" glyph-name="plus" horiz-adv-x="424" d="M379 419V291H284V187H140V291H46V419H140V523H284V419H379Z" />
<glyph unicode="," glyph-name="comma" horiz-adv-x="243" d="M72 -135L103 2H54V163H189V2L142 -135H72Z" />
<glyph unicode="-" glyph-name="hyphen" horiz-adv-x="416" d="M54 203V347H362V203H54Z" />
<glyph unicode="." glyph-name="period" horiz-adv-x="239" d="M54 0V163H185V0H54Z" />
<glyph unicode="/" glyph-name="slash" horiz-adv-x="735" d="M708 710L203 0H26L531 710H708Z" />
<glyph unicode="0" glyph-name="zero" horiz-adv-x="614" d="M568 293Q568 227 548 172T493 76T411 13T307 -10Q251 -10 203 12T120 75T66 171T46 293Q46 359 65 414T120 510T203 574T307 597Q363 597 410 574T493 511T548 415T568 293ZM407 293Q407 363 379 406T307
450Q261 450 234 407T206 293Q206 223 233 180T307 137Q351 137 379 180T407 293Z" />
<glyph unicode="1" glyph-name="one" horiz-adv-x="518" d="M494 144V0H62V144H204V399Q195 387 176 375T134 352T86 335T42 328V476Q58 476 83 487T134 513T179 545T204 571H367V144H494Z" />
<glyph unicode="2" glyph-name="two" horiz-adv-x="580" d="M39 0Q39 47 46 84T70 151T116 208T189 259Q236 285 267 302T317 332T344 355T352 380Q352 408 332 425T275 442Q233 442 202 422T142 368L40 486Q56 504 83 521T144 551T218 573T303 581Q411 581 468
534T526 407Q526 374 516 348T488 302T450 266T407 237Q392 228 371 216T330 192T292 167T265 144H537V0H39Z" />
<glyph unicode="3" glyph-name="three" horiz-adv-x="569" d="M393 237Q424 231 450 216T494 177T523 123T533 57Q533 10 514 -27T460 -91T374 -132T262 -147Q110 -147 24 -58L110 56Q137 28 171 14T254 -1Q367 -1 367 82Q367 127 334 150T228 173H198V288H231Q287
288 318 311T350 372Q350 405 327 422T266 439Q225 439 192 420T135 364L34 480Q50 501 76 519T135 549T206 569T284 576Q337 576 381 564T456 528T504 472T521 399Q521 369 512 342T485 293T445 257T393 237Z" />
<glyph unicode="4" glyph-name="four" horiz-adv-x="578" d="M293 -127V10H18V153L344 571H453V154H541V10H453V-127H293ZM176 154H312V331L176 154Z" />
<glyph unicode="5" glyph-name="five" horiz-adv-x="558" d="M294 322Q345 322 388 305T462 258T511 186T529 93Q529 39 509 -5T454 -82T369 -131T261 -149Q183 -149 121 -118T27 -31L116 68Q145 33 183 12T262 -9Q309 -9 337 18T365 90Q365 133 339 159T271 185Q244
185 221 173T184 139H45Q45 140 49 159T58 210T71 279T87 358Q105 452 128 571H481V425H244L224 304Q230 311 247 316T294 322Z" />
<glyph unicode="6" glyph-name="six" horiz-adv-x="608" d="M569 239Q569 187 549 142T494 63T411 10T307 -10Q245 -10 196 13T113 79T61 184T43 327Q43 420 62 492T118 614T206 690T323 716Q389 716 445 689T545 611L455 509Q430 541 395 559T320 577Q261 577
227 535T190 416Q210 443 243 458T321 473Q374 473 419 455T498 406T550 332T569 239ZM307 125Q329 125 349 134T384 158T408 195T417 239Q417 261 408 281T384 315T349 338T307 347Q284 347 264 339T229 316T206 281T197 239Q197 216 206 195T230 159T265 134T307
125Z" />
<glyph unicode="7" glyph-name="seven" horiz-adv-x="576" d="M328 438H29V584H580L230 -126H49L328 438Z" />
<glyph unicode="8" glyph-name="eight" horiz-adv-x="607" d="M566 215Q566 164 545 123T489 53T405 7T303 -9Q250 -9 203 7T119 54T62 126T41 221Q41 249 50 273T73 318T105 353T140 379Q107 397 85 432T62 506Q62 555 84 593T142 657T219 696T303 710Q344 710
387 697T465 659T523 595T546 508Q546 488 540 469T523 433T497 402T466 379Q484 368 502 352T534 316T557 270T566 215ZM404 225Q404 246 396 262T373 290T341 307T303 313Q261 313 232 289T203 224Q203 204 211 188T234 161T266 143T304 136Q324 136 342 142T374
161T396 189T404 225ZM224 503Q224 485 231 472T249 451T275 438T303 433Q317 433 331 437T357 451T376 473T383 503Q383 532 360 550T303 569Q270 569 247 551T224 503Z" />
<glyph unicode="9" glyph-name="nine" horiz-adv-x="589" d="M30 322Q30 374 50 419T105 498T188 551T292 571Q354 571 403 548T486 482T538 376T556 234Q556 141 537 69T481 -53T393 -129T276 -155Q210 -155 154 -128T54 -50L144 52Q169 20 204 2T278 -16Q337
-16 371 26T408 145Q388 118 355 103T278 88Q225 88 180 106T101 155T49 229T30 322ZM292 436Q270 436 250 427T215 403T191 366T182 322Q182 299 190 280T214 246T249 223T292 214Q314 214 334 222T369 245T393 279T402 322Q402 345 393 366T369 402T334 427T292
436Z" />
<glyph unicode=":" glyph-name="colon" horiz-adv-x="274" d="M72 356V519H202V356H72ZM72 0V163H202V0H72Z" />
<glyph unicode=";" glyph-name="semicolon" horiz-adv-x="280" d="M74 356V519H204V356H74ZM90 -135L122 2H73V163H208V2L161 -135H90Z" />
<glyph unicode="&lt;" glyph-name="less" horiz-adv-x="518" d="M32 293L454 549V379L264 259L454 146V-33L32 217V293Z" />
<glyph unicode="=" glyph-name="equal" horiz-adv-x="435" d="M59 124V226H376V124H59ZM59 326V428H376V326H59Z" />
<glyph unicode="&gt;" glyph-name="greater" horiz-adv-x="518" d="M486 217L63 -33V146L254 259L63 379V549L486 293V217Z" />
<glyph unicode="?" glyph-name="question" horiz-adv-x="490" d="M109 245Q109 268 112 289T123 329T148 366T190 397Q203 404 224 415T266 442T302 476T317 520Q317 553 293 571T238 590Q218 590 203 583T175 565T153 541T137 518L34 590Q60 651 116 685T244
719Q282 719 320 708T388 673T437 611T456 519Q456 462 433 424T363 356Q342 342 321 331T281 308T252 281T241 245H109ZM112 0V150H243V0H112Z" />
<glyph unicode="@" glyph-name="at" horiz-adv-x="848" d="M423 603Q497 603 565 580T685 509T769 389T801 221Q801 207 800 184T793 135T778 82T751 33T707 -2T643 -16Q616 -16 598 -9T568 10T552 35T544 62Q512 30 468 13T374 -4Q299 -4 260 35T220 138Q220
180 236 209T279 255T338 280T407 288Q446 288 473 281T515 267Q515 291 510 311T493 345T459 367T404 375Q362 375 330 364T274 332L246 415Q320 465 420 465Q488 465 526 445T582 393T605 325T609 254V172Q609 150 610 129T616 91T631 64T658 53Q683 53 699 72T723
119T734 176T737 225Q737 293 715 351T650 451T549 518T418 542Q347 542 289 519T190 454T127 355T104 229Q104 164 125 107T185 7T279 -60T405 -85Q455 -85 489 -74T562 -47L580 -106Q538 -126 493 -136T403 -146Q328 -146 262 -119T147 -43T69 75T40 231Q40 321
71 390T156 507T278 578T423 603ZM468 93Q489 103 501 119T514 155V195Q500 200 471 207T408 214Q363 214 339 197T314 140Q314 108 332 91T385 74Q402 74 425 78T468 93Z" />
<glyph unicode="A" glyph-name="A" horiz-adv-x="670" d="M261 710H409L668 0H500L445 159H224L170 0H2L261 710ZM418 272L335 523L250 272H418Z" />
<glyph unicode="B" glyph-name="B" horiz-adv-x="684" d="M655 182Q655 136 636 102T584 46T507 12T414 0H68V710H463Q500 710 530 694T581 653T613 595T625 528Q625 477 600 432T523 364Q584 346 619 300T655 182ZM488 215Q488 248 469 271T421 294H232V139H414Q446
139 467 160T488 215ZM232 570V423H393Q420 423 441 441T462 497Q462 532 444 551T399 570H232Z" />
<glyph unicode="C" glyph-name="C" horiz-adv-x="688" d="M27 361Q27 425 51 488T121 602T233 683T383 714Q483 714 556 671T666 559L540 471Q528 499 510 517T469 547T424 563T379 568Q332 568 297 549T239 500T205 432T194 355Q194 313 207 274T244 205T303
158T381 140Q403 140 426 145T471 162T511 192T540 238L674 159Q658 120 627 89T554 37T467 5T377 -6Q300 -6 236 25T125 109T53 227T27 361Z" />
<glyph unicode="D" glyph-name="D" horiz-adv-x="716" d="M68 0V710H333Q421 710 487 682T597 606T664 494T687 356Q687 275 662 210T591 98T479 26T333 0H68ZM520 356Q520 403 508 441T471 508T412 551T333 566H232V144H333Q378 144 413 160T471 204T507 271T520 356Z" />
<glyph unicode="E" glyph-name="E" horiz-adv-x="599" d="M567 144V0H68V710H558V566H232V428H512V295H232V144H567Z" />
<glyph unicode="F" glyph-name="F" horiz-adv-x="569" d="M68 0V710H550V566H232V413H494V280H232V0H68Z" />
<glyph unicode="G" glyph-name="G" horiz-adv-x="732" d="M556 70Q475 -5 369 -5Q299 -5 237 21T129 96T55 211T28 360Q28 433 55 498T129 611T242 687T382 715Q481 715 555 674T666 560L544 468Q520 516 475 542T376 569Q335 569 302 553T244 507T207 438T194
354Q194 308 208 269T247 202T306 157T383 141Q479 141 556 230V252H418V371H692V0H556V70Z" />
<glyph unicode="H" glyph-name="H" horiz-adv-x="747" d="M679 710V0H515V291H232V0H68V710H232V435H515V710H679Z" />
<glyph unicode="I" glyph-name="I" horiz-adv-x="300" d="M68 0V710H232V0H68Z" />
<glyph unicode="J" glyph-name="J" horiz-adv-x="494" d="M40 167Q50 159 82 147T158 135Q195 135 217 147T251 186T266 252T270 349V710H434V349Q434 268 426 202T389 88T305 15T158 -11Q68 -11 4 33L40 167Z" />
<glyph unicode="K" glyph-name="K" horiz-adv-x="679" d="M68 0V710H232V404L492 710H676L410 393L694 0H507L306 286L232 209V0H68Z" />
<glyph unicode="L" glyph-name="L" horiz-adv-x="585" d="M68 0V710H232V144H576V0H68Z" />
<glyph unicode="M" glyph-name="M" horiz-adv-x="860" d="M628 0V425L474 116H386L232 425V0H68V710H246L430 339L615 710H792V0H628Z" />
<glyph unicode="N" glyph-name="N" horiz-adv-x="759" d="M232 406V0H68V710H196L527 293V710H691V0H559L232 406Z" />
<glyph unicode="O" glyph-name="O" horiz-adv-x="760" d="M379 -6Q300 -6 235 25T124 106T53 222T27 356Q27 426 53 491T127 605T240 684T382 714Q461 714 526 683T637 601T708 485T733 353Q733 283 707 218T633 104T521 24T379 -6ZM194 354Q194 313 206 275T241
206T300 158T380 140Q427 140 462 159T520 208T554 277T566 356Q566 397 554 435T518 503T460 550T380 568Q333 568 299 550T241 501T206 433T194 354Z" />
<glyph unicode="P" glyph-name="P" horiz-adv-x="623" d="M68 0V710H371Q422 710 464 689T537 634T585 557T603 470Q603 423 587 380T541 303T469 249T376 229H232V0H68ZM232 372H366Q395 372 416 397T437 470Q437 495 431 513T413 543T388 560T360 566H232V372Z" />
<glyph unicode="Q" glyph-name="Q" horiz-adv-x="759" d="M552 40Q514 19 471 7T379 -5Q300 -5 235 25T124 106T53 222T27 356Q27 426 53 491T127 606T240 685T382 715Q461 715 526 684T637 601T708 485T733 353Q733 285 709 223T641 112L743 0H589L552 40ZM380
141Q420 141 450 154L336 280H490L534 231Q550 259 558 291T566 356Q566 397 554 435T518 503T460 551T380 569Q333 569 299 551T241 502T206 433T194 354Q194 313 206 275T241 207T300 159T380 141Z" />
<glyph unicode="R" glyph-name="R" horiz-adv-x="670" d="M68 0V710H388Q438 710 480 689T554 634T602 557T620 470Q620 437 612 407T589 349T553 301T504 264L660 0H475L339 229H232V0H68ZM232 372H382Q411 372 432 399T453 470Q453 514 429 540T377 566H232V372Z" />
<glyph unicode="S" glyph-name="S" horiz-adv-x="615" d="M494 502Q491 506 473 517T428 540T369 561T305 570Q217 570 217 511Q217 493 226 481T254 460T301 442T366 424Q417 410 458 394T527 353T571 293T587 209Q587 149 565 108T505 41T420 4T321 -8Q282 -8
241 -2T161 15T86 43T18 80L90 223Q94 218 116 204T170 176T243 151T324 140Q411 140 411 193Q411 213 398 226T362 249T308 269T239 289Q190 304 154 321T95 362T60 415T48 485Q48 541 69 584T126 656T209 701T310 716Q347 716 383 709T452 691T513 666T566 638L494
502Z" />
<glyph unicode="T" glyph-name="T" horiz-adv-x="621" d="M609 566H393V0H229V566H12V710H609V566Z" />
<glyph unicode="U" glyph-name="U" horiz-adv-x="747" d="M373 140Q415 140 444 157T491 204T516 270T524 347V710H688V347Q688 273 670 209T613 97T515 22T373 -6Q288 -6 228 23T131 100T76 213T58 347V710H222V347Q222 306 230 269T256 203T302 157T373 140Z" />
<glyph unicode="V" glyph-name="V" horiz-adv-x="674" d="M171 710L338 206L503 710H676L407 0H269L-3 710H171Z" />
<glyph unicode="W" glyph-name="W" horiz-adv-x="1055" d="M304 709H455L527 482L599 709H751L632 379L704 188L882 710H1061L777 0H640L527 278L415 0H277L-6 710H172L351 188L421 379L304 709Z" />
<glyph unicode="X" glyph-name="X" horiz-adv-x="651" d="M171 710L326 465L481 710H658L412 350L650 0H473L326 235L179 0H1L239 350L-7 710H171Z" />
<glyph unicode="Y" glyph-name="Y" horiz-adv-x="663" d="M178 710L331 384L486 710H665L412 242V0H249V244L0 710H178Z" />
<glyph unicode="Z" glyph-name="Z" horiz-adv-x="625" d="M28 123L398 566H42V710H587V587L235 144H591V0H28V123Z" />
<glyph unicode="[" glyph-name="bracketleft" horiz-adv-x="341" d="M80 -40V740H295V613H228V87H295V-40H80Z" />
<glyph unicode="\" glyph-name="backslash" horiz-adv-x="663" d="M203 710L638 0H462L26 710H203Z" />
<glyph unicode="]" glyph-name="bracketright" horiz-adv-x="341" d="M47 -40V87H113V613H47V740H261V-40H47Z" />
<glyph unicode="^" glyph-name="asciicircum" horiz-adv-x="604" d="M38 303L236 710H369L566 303H436L302 578L166 303H38Z" />
<glyph unicode="_" glyph-name="underscore" horiz-adv-x="459" d="M50 -144V0H410V-144H50Z" />
<glyph unicode="`" glyph-name="grave" horiz-adv-x="269" d="M46 730H191L243 600L142 572L46 730Z" />
<glyph unicode="a" glyph-name="a" horiz-adv-x="586" d="M204 -10Q165 -10 132 2T74 37T36 90T22 157Q22 196 38 228T85 283T156 319T247 332Q280 332 311 327T365 310V334Q365 425 260 425Q217 425 178 411T96 367L49 467Q101 501 157 518T276 535Q395 535 460
479T525 315V180Q525 156 532 147T559 135V0Q538 -5 521 -6T490 -8Q445 -8 422 9T393 59L390 83Q355 38 307 14T204 -10ZM251 105Q277 105 301 114T342 138Q365 156 365 176V226Q344 234 320 238T274 243Q230 243 202 223T173 171Q173 142 195 124T251 105Z" />
<glyph unicode="b" glyph-name="b" horiz-adv-x="640" d="M370 -10Q310 -10 265 15T194 87V0H55V730H215V439Q241 484 284 509T387 535Q437 535 479 514T551 455T598 368T615 260Q615 203 597 154T545 68T467 11T370 -10ZM325 125Q353 125 376 135T415 164T441
206T451 260Q451 288 442 313T418 358T380 388T333 399Q295 399 264 373T215 308V198Q231 164 261 145T325 125Z" />
<glyph unicode="c" glyph-name="c" horiz-adv-x="570" d="M24 263Q24 317 43 366T98 453T186 513T306 535Q397 535 459 497T552 396L396 349Q365 399 305 399Q255 399 222 362T188 263Q188 232 197 207T222 163T259 135T305 125Q335 125 360 139T397 177L553 129Q524
68 461 29T306 -10Q240 -10 188 12T99 72T43 159T24 263Z" />
<glyph unicode="d" glyph-name="d" horiz-adv-x="654" d="M273 -10Q219 -10 174 10T95 68T44 154T25 263Q25 320 42 370T90 456T163 514T257 535Q312 535 356 509T425 439V730H585V180Q585 156 592 147T619 135V0Q597 -5 581 -6T551 -8Q509 -8 483 9T453 60L450
87Q422 38 375 14T273 -10ZM316 125Q349 125 379 144T426 198V308Q411 348 378 373T308 399Q282 399 261 388T223 357T199 313T190 260Q190 231 199 206T225 163T265 135T316 125Z" />
<glyph unicode="e" glyph-name="e" horiz-adv-x="604" d="M306 -10Q240 -10 188 11T99 70T43 155T24 257Q24 314 43 364T98 453T186 513T306 535Q373 535 425 513T513 454T567 367T586 264Q586 250 585 237T582 213H194Q198 160 232 133T311 105Q346 105 378 122T422
168L558 130Q527 68 462 29T306 -10ZM417 312Q412 362 381 391T304 420Q257 420 227 391T191 312H417Z" />
<glyph unicode="f" glyph-name="f" horiz-adv-x="385" d="M89 0V361H22V482H89V525Q89 574 102 614T139 682T197 725T272 740Q336 740 409 709L380 589Q364 596 345 600T308 605Q249 605 249 531V482H371V361H249V0H89Z" />
<glyph unicode="g" glyph-name="g" horiz-adv-x="640" d="M259 -2Q207 -2 164 19T91 76T43 160T26 263Q26 321 44 370T94 456T171 514T270 535Q330 535 374 510T446 439V525H585V36Q585 -24 563 -72T500 -153T404 -205T281 -223Q196 -223 136 -196T31 -118L117
-31Q146 -64 189 -83T281 -103Q310 -103 336 -95T382 -71T413 -28T425 36V87Q401 43 356 21T259 -2ZM314 125Q351 125 380 145T425 198V308Q409 350 376 374T306 399Q280 399 259 388T222 357T198 312T189 259Q189 230 198 206T225 163T264 135T314 125Z" />
<glyph unicode="h" glyph-name="h" horiz-adv-x="612" d="M561 0H401V295Q401 346 381 370T326 394Q312 394 296 388T264 369T235 339T215 301V0H55V730H215V437Q244 484 291 509T396 535Q449 535 481 517T531 470T555 406T561 336V0Z" />
<glyph unicode="i" glyph-name="i" horiz-adv-x="270" d="M55 0V525H215V0H55ZM55 585V730H215V585H55Z" />
<glyph unicode="j" glyph-name="j" horiz-adv-x="274" d="M27 -202Q-13 -202 -49 -190T-114 -152L-47 -43Q-36 -54 -22 -59T7 -64Q30 -64 45 -49T60 -9V525H220V3Q220 -42 206 -80T165 -145T104 -187T27 -202ZM60 585V730H220V585H60Z" />
<glyph unicode="k" glyph-name="k" horiz-adv-x="569" d="M408 0L271 211L215 153V0H55V730H215V307L392 525H562L373 299L578 0H408Z" />
<glyph unicode="l" glyph-name="l" horiz-adv-x="335" d="M53 730H213V187Q213 127 264 127Q276 127 290 130T317 141L338 21Q308 7 269 -1T196 -9Q127 -9 90 27T53 131V730Z" />
<glyph unicode="m" glyph-name="m" horiz-adv-x="935" d="M885 0H725V295Q725 347 706 370T657 394Q641 394 625 387T594 368T569 338T550 301V0H390V295Q390 347 371 370T322 394Q290 394 260 369T215 301V0H55V525H199V437Q228 485 277 510T393 535Q426 535
450 527T493 505T522 473T538 433Q568 482 617 508T729 535Q779 535 809 517T857 469T879 404T885 336V0Z" />
<glyph unicode="n" glyph-name="n" horiz-adv-x="612" d="M561 0H401V295Q401 347 382 370T330 394Q313 394 296 387T263 368T235 338T215 301V0H55V525H199V437Q228 484 281 509T403 535Q454 535 485 517T533 469T555 404T561 336V0Z" />
<glyph unicode="o" glyph-name="o" horiz-adv-x="610" d="M305 -10Q238 -10 186 12T97 71T43 158T24 262Q24 316 42 365T97 452T185 512T305 535Q372 535 424 513T512 453T567 366T586 262Q586 208 568 159T513 72T425 12T305 -10ZM188 262Q188 200 221 163T305
125Q330 125 351 135T387 163T412 206T421 262Q421 324 388 361T305 399Q280 399 259 389T222 361T197 318T188 262Z" />
<glyph unicode="p" glyph-name="p" horiz-adv-x="640" d="M387 -10Q327 -10 283 15T215 85V-213H55V525H194V440Q223 485 266 510T370 535Q423 535 467 514T544 457T595 371T614 264Q614 205 597 155T550 69T478 11T387 -10ZM333 125Q359 125 380 136T418 167T442
211T451 265Q451 294 442 318T416 361T376 389T325 399Q292 399 262 380T215 327V219Q231 179 263 152T333 125Z" />
<glyph unicode="q" glyph-name="q" horiz-adv-x="640" d="M253 -10Q203 -10 162 11T90 69T43 156T26 264Q26 321 44 370T95 456T172 514T270 535Q330 535 373 509T446 439V525H585V-25Q585 -49 594 -58T626 -69V-205Q605 -209 581 -211T538 -213Q515 -213 495
-206T459 -185T434 -152T425 -110V85Q371 -10 253 -10ZM314 125Q349 125 377 144T425 196V307Q419 326 407 343T379 372T345 392T309 399Q283 399 261 388T223 357T198 313T189 260Q189 201 223 163T314 125Z" />
<glyph unicode="r" glyph-name="r" horiz-adv-x="400" d="M388 388Q330 387 283 369T215 315V0H55V525H202V419Q229 472 271 502T362 533Q373 533 378 533T388 532V388Z" />
<glyph unicode="s" glyph-name="s" horiz-adv-x="499" d="M262 -10Q195 -10 130 11T20 74L77 172Q125 139 170 121T258 103Q289 103 306 114T323 146Q323 167 302 179T226 206Q173 221 137 235T77 266T44 305T34 357Q34 397 50 430T94 486T160 522T244 535Q303
535 354 519T454 461L392 365Q347 396 312 410T244 424Q218 424 200 414T182 380Q182 358 201 347T274 323Q330 308 368 293T431 260T466 217T477 160Q477 82 419 36T262 -10Z" />
<glyph unicode="t" glyph-name="t" horiz-adv-x="402" d="M395 28Q362 14 320 2T234 -10Q204 -10 178 -3T131 21T100 65T88 130V404H21V525H88V692H248V525H355V404H248V185Q248 159 261 148T294 136Q312 136 331 142T364 155L395 28Z" />
<glyph unicode="u" glyph-name="u" horiz-adv-x="627" d="M214 -10Q133 -10 92 40T50 189V525H210V224Q210 176 229 151T283 125Q315 125 345 142T398 201V525H558V180Q558 156 565 147T592 135V0Q569 -5 553 -6T524 -8Q438 -8 426 59L423 91Q387 39 334 15T214 -10Z" />
<glyph unicode="v" glyph-name="v" horiz-adv-x="556" d="M191 0L5 525H170L285 128L401 525H550L365 0H191Z" />
<glyph unicode="w" glyph-name="w" horiz-adv-x="850" d="M702 525H854L637 0H506L425 216L344 0H213L-4 525H147L290 148L339 291L246 525H374L425 367L475 525H603L511 291L560 148L702 525Z" />
<glyph unicode="x" glyph-name="x" horiz-adv-x="542" d="M166 525L261 377L271 358L281 377L375 525H539L357 262L543 0H379L280 147L271 166L262 147L163 0H-1L185 262L3 525H166Z" />
<glyph unicode="y" glyph-name="y" horiz-adv-x="552" d="M59 -79Q79 -86 96 -89T128 -92Q157 -92 173 -72T202 0L2 525H167L289 137L394 525H544L344 -85Q323 -150 269 -190T141 -231Q121 -231 101 -228T59 -216V-79Z" />
<glyph unicode="z" glyph-name="z" horiz-adv-x="494" d="M24 96L292 414H38V525H459V429L193 111H466V0H24V96Z" />
<glyph unicode="{" glyph-name="braceleft" horiz-adv-x="344" d="M237 613V432Q237 409 226 392T199 360Q214 346 225 329T237 288V96H292V-31H116Q110 -31 102 -25T93 -1V234Q93 263 76 282T39 306V416Q49 416 59 422T76 439T88 461T93 486V710Q93 728 102 734T116
740H292V613H237Z" />
<glyph unicode="|" glyph-name="bar" horiz-adv-x="291" d="M78 -130V775H213V-130H78Z" />
<glyph unicode="}" glyph-name="braceright" horiz-adv-x="344" d="M52 613V740H227Q233 740 241 734T250 710V486Q250 474 254 462T267 439T284 423T305 416V306Q285 301 268 282T250 234V-1Q250 -19 242 -25T227 -31H52V96H107V288Q107 311 118 328T144 360Q128
374 118 391T107 432V613H52Z" />
<glyph unicode="~" glyph-name="asciitilde" horiz-adv-x="587" d="M51 222Q51 232 58 256T83 305T130 348T202 367Q230 367 253 359T298 341T340 323T384 314Q406 314 419 321T440 338T450 355T453 365H539Q539 359 532 336T506 287T458 242T383 222Q355 222
332 230T288 247T245 265T201 273Q179 273 167 266T148 249T139 231T137 222H51V222Z" />
<glyph unicode="&#xa0;" glyph-name="uni00A0" horiz-adv-x="233" />
<glyph unicode="&#xa1;" glyph-name="exclamdown" horiz-adv-x="331" d="M245 429V-6H85V429H245ZM245 711V545H85V711H245Z" />
<glyph unicode="&#xa2;" glyph-name="cent" horiz-adv-x="604" d="M276 -120V-9Q224 -5 180 19T105 81T56 164T38 258Q38 309 53 354T98 436T172 498T276 533V645H345V533Q414 531 473 497T567 396L411 349Q400 368 382 380T345 394V129Q367 135 385 147T412 177L568
129Q552 94 525 68T466 25T402 -1T345 -10V-120H276ZM203 258Q203 219 222 186T276 137V387Q241 376 222 340T203 258Z" />
<glyph unicode="&#xa3;" glyph-name="sterling" horiz-adv-x="564" d="M59 384H123Q106 421 91 457T75 534Q75 572 91 605T137 662T206 701T291 715Q354 715 411 688T509 610L426 512Q401 544 363 565T289 586Q257 586 237 567T217 517Q217 486 234 454T266 384H453V265H286Q282
228 264 195T210 123Q233 131 251 134T286 137Q321 137 353 129T419 121Q437 121 453 124T489 135L528 17Q505 3 473 -6T411 -15Q388 -15 365 -10T317 0T268 11T219 16Q191 16 155 9T83 -9L50 105Q93 136 119 178T149 265H59V384Z" />
<glyph unicode="&#xa4;" glyph-name="currency" horiz-adv-x="560" d="M176 501Q198 513 224 520T281 527Q311 527 336 520T384 502L453 572L515 510L449 444Q480 397 480 338Q480 277 448 230L515 164L458 107L386 174Q341 149 281 149Q249 149 223 156T174 175L102
107L44 164L112 232Q98 255 90 282T82 338Q82 396 111 442L44 510L107 572L176 501ZM197 337Q197 296 221 271T281 246Q317 246 341 271T365 338Q365 380 341 404T281 429Q245 429 221 404T197 337Z" />
<glyph unicode="&#xa5;" glyph-name="yen" horiz-adv-x="726" d="M533 416H602V313H480L442 242V211H603V108H442V0H279V108H119V211H279V244L242 313H120V416H190L30 710H207L360 384L516 710H695L533 416Z" />
<glyph unicode="&#xa6;" glyph-name="brokenbar" horiz-adv-x="294" d="M215 260V-130H79V260H215ZM215 775V385H79V775H215Z" />
<glyph unicode="&#xa7;" glyph-name="section" horiz-adv-x="541" d="M471 223Q484 209 492 185T501 122Q501 64 479 24T422 -41T347 -77T271 -88Q230 -88 194 -76T130 -47T81 -12T48 21L150 119Q179 89 206 77T263 64Q292 64 313 77T335 116Q335 129 330 137T315
149T295 154T274 157Q168 165 115 215T62 341Q62 370 68 386T77 411Q66 423 54 451T41 518Q41 557 57 592T103 655T171 698T258 715Q304 715 339 701T402 667T449 623T481 581L359 523Q346 545 323 559T268 573Q237 573 220 559T202 521Q202 506 207 497T221 483T242
476T267 474Q305 473 344 464T415 435T467 382T488 301Q488 272 482 252T471 223ZM217 319Q217 297 229 287T257 273T292 267T323 262Q330 267 333 277T337 296Q337 310 331 319T316 335T295 343T274 346Q260 346 247 348T230 353Q217 342 217 319Z" />
<glyph unicode="&#xa8;" glyph-name="dieresis" horiz-adv-x="508" d="M83 593V722H215V593H83ZM293 593V722H425V593H293Z" />
<glyph unicode="&#xa9;" glyph-name="copyright" horiz-adv-x="844" d="M418 -7Q337 -7 268 20T148 96T70 211T41 355Q41 432 69 498T148 612T267 687T418 715Q501 715 572 688T694 612T775 498T804 355Q804 277 775 211T695 97T572 21T418 -7ZM418 49Q486 49
545 71T648 134T717 230T742 354Q742 418 718 473T650 570T547 635T418 659Q350 659 293 636T193 571T126 475T102 355Q102 291 126 235T192 138T292 73T418 49ZM428 114Q367 114 319 133T237 184T185 260T167 354Q167 401 183 444T233 521T314 575T426 595Q512
595 571 558T660 460L504 412Q490 438 469 449T425 460Q383 460 357 430T331 354Q331 329 339 310T360 277T391 256T426 249Q451 249 472 261T506 297L661 250Q648 222 627 197T576 154T509 125T428 114Z" />
<glyph unicode="&#xaa;" glyph-name="ordfeminine" horiz-adv-x="447" d="M158 336Q132 336 110 345T72 369T46 406T37 452Q37 479 48 501T79 540T126 565T187 574Q233 574 263 559V574Q263 636 196 636Q167 636 142 626T87 596L53 667Q122 714 207 714Q288 714
331 675T375 561V472Q375 441 403 440V343Q373 337 351 337Q292 337 283 385L281 401Q257 369 226 353T158 336ZM191 419Q207 419 222 425T248 440Q263 452 263 466V499Q250 505 235 508T206 511Q178 511 161 498T143 462Q143 444 157 432T191 419Z" />
<glyph unicode="&#xab;" glyph-name="guillemotleft" horiz-adv-x="679" d="M33 293L303 486V357L159 259L303 168V39L33 217V293ZM352 293L622 486V357L478 259L622 168V39L352 217V293Z" />
<glyph unicode="&#xac;" glyph-name="logicalnot" horiz-adv-x="623" d="M561 415V98H426V271H54V415H561Z" />
<glyph unicode="&#xad;" glyph-name="uni00AD" horiz-adv-x="615" d="M54 203V347H561V203H54Z" />
<glyph unicode="&#xae;" glyph-name="registered" horiz-adv-x="844" d="M420 -7Q337 -7 268 20T148 96T70 211T41 355Q41 432 69 498T148 612T267 687T420 715Q502 715 572 688T694 612T775 498T804 355Q804 277 775 211T695 97T573 21T420 -7ZM421 48Q488 48
546 71T647 134T714 231T739 353Q739 417 715 473T649 570T548 635T421 659Q352 659 294 635T194 570T129 474T105 354Q105 290 128 235T194 138T294 72T421 48ZM254 574H451Q482 574 508 561T554 527T583 480T594 426Q594 387 574 353T522 301L621 140H496L409
280H367V140H254V574ZM440 376Q459 376 471 388T483 426Q483 454 469 465T438 476H367V376H440Z" />
<glyph unicode="&#xaf;" glyph-name="overscore" horiz-adv-x="428" d="M62 621V718H366V621H62Z" />
<glyph unicode="&#xb0;" glyph-name="degree" horiz-adv-x="292" d="M36 618Q36 663 67 693T146 724Q194 724 225 694T256 618Q256 566 225 535T146 504Q98 504 67 535T36 618ZM121 638Q111 628 111 614Q111 598 121 590Q130 579 146 579Q162 579 170 590Q175
594 177 601T180 614Q180 629 170 638Q166 643 160 645T146 648Q130 648 121 638Z" />
<glyph unicode="&#xb1;" glyph-name="plusminus" horiz-adv-x="476" d="M54 16V143H420V16H54ZM421 445V318H310V197H166V318H55V445H166V566H310V445H421Z" />
<glyph unicode="&#xb2;" glyph-name="twosuperior" horiz-adv-x="428" d="M28 383Q28 425 34 456T56 511T96 553T160 587Q184 597 207 606T249 625T279 649T291 681Q291 705 270 716T211 727Q169 727 139 713T90 681L31 749Q49 773 99 795T225 818Q309 818 352
782T396 680Q396 647 383 623T351 583T310 558T268 542Q182 517 182 474H382V383H28Z" />
<glyph unicode="&#xb3;" glyph-name="threesuperior" horiz-adv-x="414" d="M193 376Q130 376 87 395T26 452L75 522Q80 515 89 506T113 489T146 476T191 470Q230 470 259 480T288 514Q288 540 249 551T139 563H115V648H139Q198 648 235 658T273 695Q273 705 266
712T247 723T222 730T196 732Q157 732 131 719T85 685L25 760Q37 774 55 785T96 803T144 814T195 818Q233 818 265 809T321 784T358 747T372 700Q372 665 347 642T276 611Q326 604 354 573T382 500Q382 467 366 444T324 405T263 383T193 376Z" />
<glyph unicode="&#xb4;" glyph-name="acute" horiz-adv-x="269" d="M148 572L46 600L98 730H243L148 572Z" />
<glyph unicode="&#xb5;" glyph-name="mu" horiz-adv-x="684" d="M76 525H236V224Q236 176 255 151T313 125Q341 125 371 142T425 201V525H585V180Q585 156 593 147T625 135V0Q601 -5 583 -6T550 -8Q508 -8 483 10T452 61L449 91Q443 76 428 59T394 26T351 1T303
-10Q285 -10 272 -5T248 8T233 24T226 38L236 -213H76V525Z" />
<glyph unicode="&#xb6;" glyph-name="paragraph" horiz-adv-x="679" d="M34 451Q34 575 108 642T316 710H633V591H563V-80H427V199H386V-80H250V199Q202 199 162 217T94 268T50 347T34 451ZM167 455Q167 395 191 359T250 317V591Q212 588 190 551T167 455ZM427
591H386V317H427V591Z" />
<glyph unicode="&#xb7;" glyph-name="middot" horiz-adv-x="239" d="M54 240V406H185V240H54Z" />
<glyph unicode="&#xb8;" glyph-name="cedilla" horiz-adv-x="343" d="M51 -127Q62 -134 88 -140T141 -147Q165 -147 181 -140T197 -115Q197 -98 182 -91T143 -83Q122 -83 99 -87T64 -94L126 32L186 14L150 -38Q163 -35 180 -35Q216 -35 243 -52T270 -109Q270 -149
236 -176T130 -204Q95 -204 68 -198T21 -183L51 -127Z" />
<glyph unicode="&#xb9;" glyph-name="onesuperior" horiz-adv-x="309" d="M288 476V384H48V476H125V719Q120 712 109 703T85 686T57 673T31 667V760Q46 760 62 769T93 788T116 808T125 818H219V476H288Z" />
<glyph unicode="&#xba;" glyph-name="ordmasculine" horiz-adv-x="441" d="M220 336Q175 336 140 351T81 393T45 453T32 525Q32 563 44 597T81 657T140 698T220 714Q265 714 300 699T360 657T396 597T409 525Q409 487 397 453T360 393T301 352T220 336ZM147 525Q147
483 168 458T220 433Q252 433 273 458T294 525Q294 567 273 592T220 617Q189 617 168 592T147 525Z" />
<glyph unicode="&#xbb;" glyph-name="guillemotright" horiz-adv-x="679" d="M646 217L376 39V168L520 259L376 357V486L646 293V217ZM327 217L57 39V168L201 259L57 357V486L327 293V217Z" />
<glyph unicode="&#xbc;" glyph-name="onequarter" horiz-adv-x="972" d="M783 1V89H565V180L812 431H876V180H938V89H876V1H783ZM653 180H787V318L653 180ZM194 56L476 380L732 719L804 655L531 339L265 -9L194 56ZM298 389V297H58V389H135V632Q130 625 119 616T95
599T67 586T41 580V673Q56 673 72 682T103 701T126 721T135 731H229V389H298Z" />
<glyph unicode="&#xbd;" glyph-name="onehalf" horiz-adv-x="992" d="M588 0Q588 42 594 73T616 127T656 169T719 204Q743 214 766 223T807 242T836 266T848 297Q848 322 827 333T769 344Q727 344 697 329T649 297L591 366Q609 390 659 412T784 435Q865 435 908
399T952 296Q952 263 940 240T908 200T867 175T825 159Q740 134 740 91H953V0H588ZM153 56L435 380L691 719L763 655L490 339L224 -9L153 56ZM296 389V297H56V389H133V632Q128 625 117 616T93 599T65 586T39 580V673Q54 673 70 682T101 701T124 721T133 731H227V389H296Z"
/>
<glyph unicode="&#xbe;" glyph-name="threequarters" horiz-adv-x="980" d="M205 289Q142 289 99 308T38 365L87 435Q102 416 130 400T203 383Q242 383 271 393T300 427Q300 453 261 464T151 476H127V561H151Q210 561 247 571T285 608Q285 618 278 625T259 636T234
643T208 645Q169 645 143 632T97 598L37 673Q49 687 67 698T108 716T156 727T207 731Q245 731 277 722T333 697T370 660T384 613Q384 578 359 555T288 524Q338 517 366 486T394 413Q394 380 378 357T336 318T275 296T205 289ZM790 1V89H572V180L819 431H883V180H945V89H883V1H790ZM660
180H794V318L660 180ZM224 56L506 380L762 719L834 655L561 339L295 -9L224 56Z" />
<glyph unicode="&#xbf;" glyph-name="questiondown" horiz-adv-x="483" d="M377 261Q377 238 374 217T363 177T338 140T296 109Q283 101 262 90T220 64T184 30T169 -14Q169 -47 193 -65T248 -84Q268 -84 283 -77T311 -59T333 -36T349 -12L452 -84Q426 -145 370
-179T242 -213Q204 -213 166 -202T98 -167T49 -105T30 -13Q30 44 53 82T123 150Q144 163 165 174T205 198T234 225T245 261H377ZM374 506V356H243V506H374Z" />
<glyph unicode="&#xc0;" glyph-name="Agrave" horiz-adv-x="670" d="M261 710H409L668 0H500L445 159H224L170 0H2L261 710ZM418 272L335 523L250 272H418ZM194 916H339L391 786L290 758L194 916Z" />
<glyph unicode="&#xc1;" glyph-name="Aacute" horiz-adv-x="670" d="M261 710H409L668 0H500L445 159H224L170 0H2L261 710ZM418 272L335 523L250 272H418ZM381 757L279 785L331 915H476L381 757Z" />
<glyph unicode="&#xc2;" glyph-name="Acircumflex" horiz-adv-x="670" d="M261 710H409L668 0H500L445 159H224L170 0H2L261 710ZM418 272L335 523L250 272H418ZM168 807L278 915H393L502 807L420 771L335 834L250 771L168 807Z" />
<glyph unicode="&#xc3;" glyph-name="Atilde" horiz-adv-x="670" d="M261 710H409L668 0H500L445 159H224L170 0H2L261 710ZM418 272L335 523L250 272H418ZM399 773Q376 773 359 780T326 796T297 812T266 819Q249 819 240 812T226 796T220 780T219 771H133Q133
782 139 805T161 853T200 895T260 913Q284 913 301 906T332 889T361 873T393 865Q410 865 420 872T436 889T443 906T445 915H531Q531 907 524 884T502 836T461 792T399 773Z" />
<glyph unicode="&#xc4;" glyph-name="Adieresis" horiz-adv-x="670" d="M261 710H409L668 0H500L445 159H224L170 0H2L261 710ZM418 272L335 523L250 272H418ZM165 779V908H297V779H165ZM375 779V908H507V779H375Z" />
<glyph unicode="&#xc5;" glyph-name="Aring" horiz-adv-x="670" d="M261 710H409L668 0H500L445 159H224L170 0H2L261 710ZM418 272L335 523L250 272H418ZM228 833Q228 874 257 894T335 915Q383 915 412 895T441 833Q441 793 412 773T335 752Q287 752 258 772T228
833ZM335 868Q318 868 307 859T295 834Q295 819 306 809T335 799Q351 799 363 808T375 834Q375 849 364 858T335 868Z" />
<glyph unicode="&#xc6;" glyph-name="AE" horiz-adv-x="968" d="M412 710H927V566H618V433H873V290H618V144H936V0H455V159H240L149 0H-26L412 710ZM442 303V527L309 303H442Z" />
<glyph unicode="&#xc7;" glyph-name="Ccedilla" horiz-adv-x="687" d="M281 -127Q292 -134 318 -140T371 -147Q395 -147 411 -140T427 -115Q427 -98 412 -91T373 -83Q352 -83 329 -87T294 -94L338 -4Q268 3 211 37T112 121T49 234T26 361Q26 425 50 488T120 602T232
683T382 714Q482 714 555 671T665 559L539 471Q527 499 509 517T468 547T423 563T378 568Q331 568 296 549T238 500T204 432T193 355Q193 313 206 274T243 205T302 158T380 140Q402 140 425 145T470 162T510 192T539 238L673 159Q658 123 630 94T565 44T487 11T403
-5L380 -38Q393 -35 410 -35Q446 -35 473 -52T500 -109Q500 -149 466 -176T360 -204Q325 -204 298 -198T251 -183L281 -127Z" />
<glyph unicode="&#xc8;" glyph-name="Egrave" horiz-adv-x="599" d="M567 144V0H68V710H558V566H232V428H512V295H232V144H567ZM180 916H325L377 786L276 758L180 916Z" />
<glyph unicode="&#xc9;" glyph-name="Eacute" horiz-adv-x="599" d="M367 757L265 785L317 915H462L367 757ZM567 144V0H68V710H558V566H232V428H512V295H232V144H567Z" />
<glyph unicode="&#xca;" glyph-name="Ecircumflex" horiz-adv-x="599" d="M154 807L264 915H379L488 807L406 771L321 834L236 771L154 807ZM567 144V0H68V710H558V566H232V428H512V295H232V144H567Z" />
<glyph unicode="&#xcb;" glyph-name="Edieresis" horiz-adv-x="599" d="M150 779V908H282V779H150ZM360 779V908H492V779H360ZM567 144V0H68V710H558V566H232V428H512V295H232V144H567Z" />
<glyph unicode="&#xcc;" glyph-name="Igrave" horiz-adv-x="300" d="M68 0V710H232V0H68ZM8 916H153L205 786L104 758L8 916Z" />
<glyph unicode="&#xcd;" glyph-name="Iacute" horiz-adv-x="300" d="M68 0V710H232V0H68ZM195 757L93 785L145 915H290L195 757Z" />
<glyph unicode="&#xce;" glyph-name="Icircumflex" horiz-adv-x="300" d="M68 0V710H232V0H68ZM-17 807L93 915H208L317 807L235 771L150 834L65 771L-17 807Z" />
<glyph unicode="&#xcf;" glyph-name="Idieresis" horiz-adv-x="300" d="M68 0V710H232V0H68ZM-21 779V908H111V779H-21ZM189 779V908H321V779H189Z" />
<glyph unicode="&#xd0;" glyph-name="Eth" horiz-adv-x="721" d="M73 0V298H30V416H73V710H338Q426 710 492 682T602 606T669 494T692 356Q692 275 667 210T596 98T484 26T338 0H73ZM525 356Q525 403 513 441T476 508T417 551T338 566H237V416H365V298H237V144H338Q383
144 418 160T476 204T512 271T525 356Z" />
<glyph unicode="&#xd1;" glyph-name="Ntilde" horiz-adv-x="759" d="M232 406V0H68V710H196L527 293V710H691V0H559L232 406ZM441 772Q418 772 401 779T368 795T339 811T308 818Q291 818 282 811T268 795T262 779T261 770H175Q175 781 181 804T203 852T242 894T302
912Q326 912 343 905T374 888T403 872T435 864Q452 864 462 871T478 888T485 905T487 914H573Q573 906 566 883T544 835T503 791T441 772Z" />
<glyph unicode="&#xd2;" glyph-name="Ograve" horiz-adv-x="760" d="M379 -6Q300 -6 235 25T124 106T53 222T27 356Q27 426 53 491T127 605T240 684T382 714Q461 714 526 683T637 601T708 485T733 353Q733 283 707 218T633 104T521 24T379 -6ZM194 354Q194 313
206 275T241 206T300 158T380 140Q427 140 462 159T520 208T554 277T566 356Q566 397 554 435T518 503T460 550T380 568Q333 568 299 550T241 501T206 433T194 354ZM244 916H389L441 786L340 758L244 916Z" />
<glyph unicode="&#xd3;" glyph-name="Oacute" horiz-adv-x="760" d="M433 757L331 785L383 915H528L433 757ZM379 -6Q300 -6 235 25T124 106T53 222T27 356Q27 426 53 491T127 605T240 684T382 714Q461 714 526 683T637 601T708 485T733 353Q733 283 707 218T633
104T521 24T379 -6ZM194 354Q194 313 206 275T241 206T300 158T380 140Q427 140 462 159T520 208T554 277T566 356Q566 397 554 435T518 503T460 550T380 568Q333 568 299 550T241 501T206 433T194 354Z" />
<glyph unicode="&#xd4;" glyph-name="Ocircumflex" horiz-adv-x="760" d="M214 807L324 915H439L548 807L466 771L381 834L296 771L214 807ZM379 -6Q300 -6 235 25T124 106T53 222T27 356Q27 426 53 491T127 605T240 684T382 714Q461 714 526 683T637 601T708
485T733 353Q733 283 707 218T633 104T521 24T379 -6ZM194 354Q194 313 206 275T241 206T300 158T380 140Q427 140 462 159T520 208T554 277T566 356Q566 397 554 435T518 503T460 550T380 568Q333 568 299 550T241 501T206 433T194 354Z" />
<glyph unicode="&#xd5;" glyph-name="Otilde" horiz-adv-x="760" d="M379 -6Q300 -6 235 25T124 106T53 222T27 356Q27 426 53 491T127 605T240 684T382 714Q461 714 526 683T637 601T708 485T733 353Q733 283 707 218T633 104T521 24T379 -6ZM194 354Q194 313
206 275T241 206T300 158T380 140Q427 140 462 159T520 208T554 277T566 356Q566 397 554 435T518 503T460 550T380 568Q333 568 299 550T241 501T206 433T194 354ZM448 773Q425 773 408 780T375 796T346 812T315 819Q298 819 289 812T275 796T269 780T268 771H182Q182
782 188 805T210 853T249 895T309 913Q333 913 350 906T381 889T410 873T442 865Q459 865 469 872T485 889T492 906T494 915H580Q580 907 573 884T551 836T510 792T448 773Z" />
<glyph unicode="&#xd6;" glyph-name="Odieresis" horiz-adv-x="760" d="M210 779V908H342V779H210ZM420 779V908H552V779H420ZM379 -6Q300 -6 235 25T124 106T53 222T27 356Q27 426 53 491T127 605T240 684T382 714Q461 714 526 683T637 601T708 485T733 353Q733
283 707 218T633 104T521 24T379 -6ZM194 354Q194 313 206 275T241 206T300 158T380 140Q427 140 462 159T520 208T554 277T566 356Q566 397 554 435T518 503T460 550T380 568Q333 568 299 550T241 501T206 433T194 354Z" />
<glyph unicode="&#xd7;" glyph-name="multiply" horiz-adv-x="484" d="M437 181L337 82L241 177L146 82L47 181L141 276L52 367L152 466L242 376L332 466L431 367L341 277L437 181Z" />
<glyph unicode="&#xd8;" glyph-name="Oslash" horiz-adv-x="759" d="M721 710L640 596Q684 545 708 482T732 353Q732 283 706 218T632 104T520 24T378 -6Q301 -6 234 25L216 0H39L118 111Q73 162 50 225T26 356Q26 426 52 491T126 605T239 684T381 714Q458 714
525 683L544 710H721ZM193 354Q193 326 198 299T215 248L436 559Q423 563 409 565T379 568Q332 568 298 550T240 501T205 433T193 354ZM565 356Q565 383 560 409T543 460L322 148Q349 140 379 140Q426 140 461 159T519 208T553 277T565 356Z" />
<glyph unicode="&#xd9;" glyph-name="Ugrave" horiz-adv-x="747" d="M373 140Q415 140 444 157T491 204T516 270T524 347V710H688V347Q688 273 670 209T613 97T515 22T373 -6Q288 -6 228 23T131 100T76 213T58 347V710H222V347Q222 306 230 269T256 203T302 157T373
140ZM232 916H377L429 786L328 758L232 916Z" />
<glyph unicode="&#xda;" glyph-name="Uacute" horiz-adv-x="747" d="M419 757L317 785L369 915H514L419 757ZM373 140Q415 140 444 157T491 204T516 270T524 347V710H688V347Q688 273 670 209T613 97T515 22T373 -6Q288 -6 228 23T131 100T76 213T58 347V710H222V347Q222
306 230 269T256 203T302 157T373 140Z" />
<glyph unicode="&#xdb;" glyph-name="Ucircumflex" horiz-adv-x="747" d="M206 807L316 915H431L540 807L458 771L373 834L288 771L206 807ZM373 140Q415 140 444 157T491 204T516 270T524 347V710H688V347Q688 273 670 209T613 97T515 22T373 -6Q288 -6 228 23T131
100T76 213T58 347V710H222V347Q222 306 230 269T256 203T302 157T373 140Z" />
<glyph unicode="&#xdc;" glyph-name="Udieresis" horiz-adv-x="747" d="M202 779V908H334V779H202ZM412 779V908H544V779H412ZM373 140Q415 140 444 157T491 204T516 270T524 347V710H688V347Q688 273 670 209T613 97T515 22T373 -6Q288 -6 228 23T131 100T76
213T58 347V710H222V347Q222 306 230 269T256 203T302 157T373 140Z" />
<glyph unicode="&#xdd;" glyph-name="Yacute" horiz-adv-x="663" d="M178 710L331 384L486 710H665L412 242V0H249V244L0 710H178ZM376 757L274 785L326 915H471L376 757Z" />
<glyph unicode="&#xde;" glyph-name="Thorn" horiz-adv-x="605" d="M355 586Q406 586 448 565T521 511T569 434T587 347Q587 300 571 257T525 180T454 126T361 106H232V0H68V710H232V586H355ZM352 250Q382 250 402 277T423 347Q423 391 400 417T347 443H232V250H352Z" />
<glyph unicode="&#xdf;" glyph-name="germandbls" horiz-adv-x="560" d="M250 141Q301 141 334 163T368 231Q368 253 360 269T338 297T308 313T275 319H253V462H274Q303 462 318 478T333 520Q333 539 326 550T309 568T289 577T271 579Q251 579 239 571T219 550T210
523T207 497V0H55V525Q55 566 72 600T121 660T194 700T285 714Q328 714 364 703T428 670T470 618T485 548Q485 522 479 499T461 457T436 424T405 403Q466 383 501 334T536 212Q536 151 512 110T447 43T355 6T250 -6V141Z" />
<glyph unicode="&#xe0;" glyph-name="agrave" horiz-adv-x="586" d="M204 -10Q165 -10 132 2T74 37T36 90T22 157Q22 196 38 228T85 283T156 319T247 332Q280 332 311 327T365 310V334Q365 425 260 425Q217 425 178 411T96 367L49 467Q101 501 157 518T276 535Q395
535 460 479T525 315V180Q525 156 532 147T559 135V0Q538 -5 521 -6T490 -8Q445 -8 422 9T393 59L390 83Q355 38 307 14T204 -10ZM251 105Q277 105 301 114T342 138Q365 156 365 176V226Q344 234 320 238T274 243Q230 243 202 223T173 171Q173 142 195 124T251
105ZM135 731H280L332 601L231 573L135 731Z" />
<glyph unicode="&#xe1;" glyph-name="aacute" horiz-adv-x="586" d="M204 -10Q165 -10 132 2T74 37T36 90T22 157Q22 196 38 228T85 283T156 319T247 332Q280 332 311 327T365 310V334Q365 425 260 425Q217 425 178 411T96 367L49 467Q101 501 157 518T276 535Q395
535 460 479T525 315V180Q525 156 532 147T559 135V0Q538 -5 521 -6T490 -8Q445 -8 422 9T393 59L390 83Q355 38 307 14T204 -10ZM251 105Q277 105 301 114T342 138Q365 156 365 176V226Q344 234 320 238T274 243Q230 243 202 223T173 171Q173 142 195 124T251
105ZM322 572L220 600L272 730H417L322 572Z" />
<glyph unicode="&#xe2;" glyph-name="acircumflex" horiz-adv-x="586" d="M204 -10Q165 -10 132 2T74 37T36 90T22 157Q22 196 38 228T85 283T156 319T247 332Q280 332 311 327T365 310V334Q365 425 260 425Q217 425 178 411T96 367L49 467Q101 501 157 518T276
535Q395 535 460 479T525 315V180Q525 156 532 147T559 135V0Q538 -5 521 -6T490 -8Q445 -8 422 9T393 59L390 83Q355 38 307 14T204 -10ZM251 105Q277 105 301 114T342 138Q365 156 365 176V226Q344 234 320 238T274 243Q230 243 202 223T173 171Q173 142 195
124T251 105ZM109 622L219 730H334L443 622L361 586L276 649L191 586L109 622Z" />
<glyph unicode="&#xe3;" glyph-name="atilde" horiz-adv-x="586" d="M204 -10Q165 -10 132 2T74 37T36 90T22 157Q22 196 38 228T85 283T156 319T247 332Q280 332 311 327T365 310V334Q365 425 260 425Q217 425 178 411T96 367L49 467Q101 501 157 518T276 535Q395
535 460 479T525 315V180Q525 156 532 147T559 135V0Q538 -5 521 -6T490 -8Q445 -8 422 9T393 59L390 83Q355 38 307 14T204 -10ZM251 105Q277 105 301 114T342 138Q365 156 365 176V226Q344 234 320 238T274 243Q230 243 202 223T173 171Q173 142 195 124T251
105ZM339 588Q316 588 299 595T266 611T237 627T206 634Q189 634 180 627T166 611T160 595T159 586H73Q73 597 79 620T101 668T140 710T200 728Q224 728 241 721T272 704T301 688T333 680Q350 680 360 687T376 704T383 721T385 730H471Q471 722 464 699T442 651T401
607T339 588Z" />
<glyph unicode="&#xe4;" glyph-name="adieresis" horiz-adv-x="586" d="M204 -10Q165 -10 132 2T74 37T36 90T22 157Q22 196 38 228T85 283T156 319T247 332Q280 332 311 327T365 310V334Q365 425 260 425Q217 425 178 411T96 367L49 467Q101 501 157 518T276
535Q395 535 460 479T525 315V180Q525 156 532 147T559 135V0Q538 -5 521 -6T490 -8Q445 -8 422 9T393 59L390 83Q355 38 307 14T204 -10ZM251 105Q277 105 301 114T342 138Q365 156 365 176V226Q344 234 320 238T274 243Q230 243 202 223T173 171Q173 142 195
124T251 105ZM105 594V723H237V594H105ZM315 594V723H447V594H315Z" />
<glyph unicode="&#xe5;" glyph-name="aring" horiz-adv-x="586" d="M204 -10Q165 -10 132 2T74 37T36 90T22 157Q22 196 38 228T85 283T156 319T247 332Q280 332 311 327T365 310V334Q365 425 260 425Q217 425 178 411T96 367L49 467Q101 501 157 518T276 535Q395
535 460 479T525 315V180Q525 156 532 147T559 135V0Q538 -5 521 -6T490 -8Q445 -8 422 9T393 59L390 83Q355 38 307 14T204 -10ZM251 105Q277 105 301 114T342 138Q365 156 365 176V226Q344 234 320 238T274 243Q230 243 202 223T173 171Q173 142 195 124T251
105ZM169 648Q169 689 198 709T276 730Q324 730 353 710T382 648Q382 608 353 588T276 567Q228 567 199 587T169 648ZM276 683Q259 683 248 674T236 649Q236 634 247 624T276 614Q292 614 304 623T316 649Q316 664 305 673T276 683Z" />
<glyph unicode="&#xe6;" glyph-name="ae" horiz-adv-x="939" d="M203 -10Q164 -10 131 2T74 37T36 90T22 157Q22 196 38 228T85 283T156 319T247 332Q279 332 308 327T360 312Q360 317 361 327T364 342Q361 384 336 404T260 425Q217 425 178 411T96 367L49 467Q101
501 157 518T276 535Q336 535 382 519T459 471Q493 500 538 517T640 535Q707 535 759 513T848 454T903 367T922 262Q922 250 921 237T917 213H527Q529 187 539 167T566 133T603 112T646 105Q682 105 714 122T757 168L893 130Q863 68 798 29T641 -10Q564 -10 506
18T413 95Q394 67 369 47T316 15T259 -4T203 -10ZM250 105Q276 105 300 114T342 138Q365 156 365 175Q364 177 363 184T362 201T361 217T360 228Q340 235 317 239T274 243Q230 243 202 223T173 171Q173 142 195 124T250 105ZM753 310Q748 360 717 390T638 420Q590
420 560 390T524 310H753Z" />
<glyph unicode="&#xe7;" glyph-name="ccedilla" horiz-adv-x="570" d="M225 -127Q236 -134 262 -140T315 -147Q339 -147 355 -140T371 -115Q371 -98 356 -91T317 -83Q296 -83 273 -87T238 -94L280 -9Q220 -5 173 19T92 80T42 164T24 263Q24 317 43 366T98 453T186
513T306 535Q397 535 459 497T552 396L396 349Q365 399 305 399Q255 399 222 362T188 263Q188 232 197 207T222 163T259 135T305 125Q335 125 360 139T397 177L553 129Q527 75 474 38T344 -8L324 -38Q337 -35 354 -35Q390 -35 417 -52T444 -109Q444 -149 410 -176T304
-204Q269 -204 242 -198T195 -183L225 -127Z" />
<glyph unicode="&#xe8;" glyph-name="egrave" horiz-adv-x="604" d="M306 -10Q240 -10 188 11T99 70T43 155T24 257Q24 314 43 364T98 453T186 513T306 535Q373 535 425 513T513 454T567 367T586 264Q586 250 585 237T582 213H194Q198 160 232 133T311 105Q346
105 378 122T422 168L558 130Q527 68 462 29T306 -10ZM417 312Q412 362 381 391T304 420Q257 420 227 391T191 312H417ZM163 731H308L360 601L259 573L163 731Z" />
<glyph unicode="&#xe9;" glyph-name="eacute" horiz-adv-x="604" d="M350 572L248 600L300 730H445L350 572ZM306 -10Q240 -10 188 11T99 70T43 155T24 257Q24 314 43 364T98 453T186 513T306 535Q373 535 425 513T513 454T567 367T586 264Q586 250 585 237T582
213H194Q198 160 232 133T311 105Q346 105 378 122T422 168L558 130Q527 68 462 29T306 -10ZM417 312Q412 362 381 391T304 420Q257 420 227 391T191 312H417Z" />
<glyph unicode="&#xea;" glyph-name="ecircumflex" horiz-adv-x="604" d="M137 622L247 730H362L471 622L389 586L304 649L219 586L137 622ZM306 -10Q240 -10 188 11T99 70T43 155T24 257Q24 314 43 364T98 453T186 513T306 535Q373 535 425 513T513 454T567 367T586
264Q586 250 585 237T582 213H194Q198 160 232 133T311 105Q346 105 378 122T422 168L558 130Q527 68 462 29T306 -10ZM417 312Q412 362 381 391T304 420Q257 420 227 391T191 312H417Z" />
<glyph unicode="&#xeb;" glyph-name="edieresis" horiz-adv-x="604" d="M134 594V723H266V594H134ZM344 594V723H476V594H344ZM306 -10Q240 -10 188 11T99 70T43 155T24 257Q24 314 43 364T98 453T186 513T306 535Q373 535 425 513T513 454T567 367T586 264Q586
250 585 237T582 213H194Q198 160 232 133T311 105Q346 105 378 122T422 168L558 130Q527 68 462 29T306 -10ZM417 312Q412 362 381 391T304 420Q257 420 227 391T191 312H417Z" />
<glyph unicode="&#xec;" glyph-name="igrave" horiz-adv-x="270" d="M55 0V525H215V0H55ZM-7 731H138L190 601L89 573L-7 731Z" />
<glyph unicode="&#xed;" glyph-name="iacute" horiz-adv-x="270" d="M180 572L78 600L130 730H275L180 572ZM55 0V525H215V0H55Z" />
<glyph unicode="&#xee;" glyph-name="icircumflex" horiz-adv-x="270" d="M-32 622L78 730H193L302 622L220 586L135 649L50 586L-32 622ZM55 0V525H215V0H55Z" />
<glyph unicode="&#xef;" glyph-name="idieresis" horiz-adv-x="270" d="M-36 594V723H96V594H-36ZM174 594V723H306V594H174ZM55 0V525H215V0H55Z" />
<glyph unicode="&#xf0;" glyph-name="eth" horiz-adv-x="617" d="M537 651L471 616Q528 547 558 462T589 291Q589 220 569 165T511 70T422 11T306 -10Q246 -10 195 8T106 59T48 136T27 234Q27 283 45 326T96 402T172 453T267 472Q314 472 355 455T424 408Q404
492 349 562L264 516L219 577L296 618Q229 677 128 730H327Q375 707 417 671L493 712L537 651ZM191 234Q191 186 223 156T307 125Q359 125 391 156T424 236Q424 284 392 314T308 344Q257 344 224 313T191 234Z" />
<glyph unicode="&#xf1;" glyph-name="ntilde" horiz-adv-x="612" d="M561 0H401V295Q401 347 382 370T330 394Q313 394 296 387T263 368T235 338T215 301V0H55V525H199V437Q228 484 281 509T403 535Q454 535 485 517T533 469T555 404T561 336V0ZM388 588Q365 588
348 595T315 611T286 627T255 634Q238 634 229 627T215 611T209 595T208 586H122Q122 597 128 620T150 668T189 710T249 728Q273 728 290 721T321 704T350 688T382 680Q399 680 409 687T425 704T432 721T434 730H520Q520 722 513 699T491 651T450 607T388 588Z"
/>
<glyph unicode="&#xf2;" glyph-name="ograve" horiz-adv-x="610" d="M305 -10Q238 -10 186 12T97 71T43 158T24 262Q24 316 42 365T97 452T185 512T305 535Q372 535 424 513T512 453T567 366T586 262Q586 208 568 159T513 72T425 12T305 -10ZM188 262Q188 200
221 163T305 125Q330 125 351 135T387 163T412 206T421 262Q421 324 388 361T305 399Q280 399 259 389T222 361T197 318T188 262ZM164 731H309L361 601L260 573L164 731Z" />
<glyph unicode="&#xf3;" glyph-name="oacute" horiz-adv-x="610" d="M350 572L248 600L300 730H445L350 572ZM305 -10Q238 -10 186 12T97 71T43 158T24 262Q24 316 42 365T97 452T185 512T305 535Q372 535 424 513T512 453T567 366T586 262Q586 208 568 159T513
72T425 12T305 -10ZM188 262Q188 200 221 163T305 125Q330 125 351 135T387 163T412 206T421 262Q421 324 388 361T305 399Q280 399 259 389T222 361T197 318T188 262Z" />
<glyph unicode="&#xf4;" glyph-name="ocircumflex" horiz-adv-x="610" d="M137 622L247 730H362L471 622L389 586L304 649L219 586L137 622ZM305 -10Q238 -10 186 12T97 71T43 158T24 262Q24 316 42 365T97 452T185 512T305 535Q372 535 424 513T512 453T567 366T586
262Q586 208 568 159T513 72T425 12T305 -10ZM188 262Q188 200 221 163T305 125Q330 125 351 135T387 163T412 206T421 262Q421 324 388 361T305 399Q280 399 259 389T222 361T197 318T188 262Z" />
<glyph unicode="&#xf5;" glyph-name="otilde" horiz-adv-x="610" d="M305 -10Q238 -10 186 12T97 71T43 158T24 262Q24 316 42 365T97 452T185 512T305 535Q372 535 424 513T512 453T567 366T586 262Q586 208 568 159T513 72T425 12T305 -10ZM188 262Q188 200
221 163T305 125Q330 125 351 135T387 163T412 206T421 262Q421 324 388 361T305 399Q280 399 259 389T222 361T197 318T188 262ZM368 588Q345 588 328 595T295 611T266 627T235 634Q218 634 209 627T195 611T189 595T188 586H102Q102 597 108 620T130 668T169
710T229 728Q253 728 270 721T301 704T330 688T362 680Q379 680 389 687T405 704T412 721T414 730H500Q500 722 493 699T471 651T430 607T368 588Z" />
<glyph unicode="&#xf6;" glyph-name="odieresis" horiz-adv-x="610" d="M134 594V723H266V594H134ZM344 594V723H476V594H344ZM305 -10Q238 -10 186 12T97 71T43 158T24 262Q24 316 42 365T97 452T185 512T305 535Q372 535 424 513T512 453T567 366T586 262Q586
208 568 159T513 72T425 12T305 -10ZM188 262Q188 200 221 163T305 125Q330 125 351 135T387 163T412 206T421 262Q421 324 388 361T305 399Q280 399 259 389T222 361T197 318T188 262Z" />
<glyph unicode="&#xf7;" glyph-name="divide" horiz-adv-x="499" d="M183 426V569H317V426H183ZM183 38V181H317V38H183ZM48 240V367H452V240H48Z" />
<glyph unicode="&#xf8;" glyph-name="oslash" horiz-adv-x="610" d="M33 -5L98 70Q62 108 43 157T24 262Q24 316 42 365T97 452T185 512T305 535Q349 535 386 525T454 498L481 530H569L507 458Q545 420 565 370T586 262Q586 208 568 159T513 72T425 12T305 -10Q215
-10 150 30L120 -5H33ZM305 125Q330 125 351 135T387 163T412 206T421 262Q421 306 402 339L243 143Q268 125 305 125ZM188 262Q188 219 204 188L362 383Q335 399 305 399Q280 399 259 389T222 361T197 318T188 262Z" />
<glyph unicode="&#xf9;" glyph-name="ugrave" horiz-adv-x="627" d="M214 -10Q133 -10 92 40T50 189V525H210V224Q210 176 229 151T283 125Q315 125 345 142T398 201V525H558V180Q558 156 565 147T592 135V0Q569 -5 553 -6T524 -8Q438 -8 426 59L423 91Q387 39
334 15T214 -10ZM163 731H308L360 601L259 573L163 731Z" />
<glyph unicode="&#xfa;" glyph-name="uacute" horiz-adv-x="627" d="M350 572L248 600L300 730H445L350 572ZM214 -10Q133 -10 92 40T50 189V525H210V224Q210 176 229 151T283 125Q315 125 345 142T398 201V525H558V180Q558 156 565 147T592 135V0Q569 -5 553
-6T524 -8Q438 -8 426 59L423 91Q387 39 334 15T214 -10Z" />
<glyph unicode="&#xfb;" glyph-name="ucircumflex" horiz-adv-x="627" d="M137 622L247 730H362L471 622L389 586L304 649L219 586L137 622ZM214 -10Q133 -10 92 40T50 189V525H210V224Q210 176 229 151T283 125Q315 125 345 142T398 201V525H558V180Q558 156
565 147T592 135V0Q569 -5 553 -6T524 -8Q438 -8 426 59L423 91Q387 39 334 15T214 -10Z" />
<glyph unicode="&#xfc;" glyph-name="udieresis" horiz-adv-x="627" d="M133 594V723H265V594H133ZM343 594V723H475V594H343ZM214 -10Q133 -10 92 40T50 189V525H210V224Q210 176 229 151T283 125Q315 125 345 142T398 201V525H558V180Q558 156 565 147T592 135V0Q569
-5 553 -6T524 -8Q438 -8 426 59L423 91Q387 39 334 15T214 -10Z" />
<glyph unicode="&#xfd;" glyph-name="yacute" horiz-adv-x="552" d="M59 -79Q79 -86 96 -89T128 -92Q157 -92 173 -72T202 0L2 525H167L289 137L394 525H544L344 -85Q323 -150 269 -190T141 -231Q121 -231 101 -228T59 -216V-79ZM335 572L233 600L285 730H430L335 572Z" />
<glyph unicode="&#xfe;" glyph-name="thorn" horiz-adv-x="600" d="M577 256Q577 200 556 149T499 58T414 -4T311 -27Q269 -27 247 -15T219 8V-213H55V710H219V503Q226 513 249 527T319 541Q378 541 426 516T507 450T559 358T577 256ZM413 259Q413 287 406 312T386
357T353 387T309 398Q277 398 256 380T219 332V177Q219 168 226 157T246 137T274 122T306 116Q329 116 348 127T382 157T405 202T413 259Z" />
<glyph unicode="&#xff;" glyph-name="ydieresis" horiz-adv-x="552" d="M59 -79Q79 -86 96 -89T128 -92Q157 -92 173 -72T202 0L2 525H167L289 137L394 525H544L344 -85Q323 -150 269 -190T141 -231Q121 -231 101 -228T59 -216V-79ZM119 594V723H251V594H119ZM329
594V723H461V594H329Z" />
<glyph unicode="&#x2013;" glyph-name="endash" horiz-adv-x="615" d="M54 203V347H561V203H54Z" />
<glyph unicode="&#x2014;" glyph-name="emdash" horiz-adv-x="937" d="M54 203V347H883V203H54Z" />
<glyph unicode="&#x2018;" glyph-name="quoteleft" horiz-adv-x="268" d="M195 730L171 604H216V457H53V607L91 730H195Z" />
<glyph unicode="&#x2019;" glyph-name="quoteright" horiz-adv-x="258" d="M70 467L94 593H49V740H212V590L174 467H70Z" />
<glyph unicode="&#x201a;" glyph-name="quotesinglbase" horiz-adv-x="272" d="M75 -140L100 0H54V163H218V-4L179 -140H75Z" />
<glyph unicode="&#x201c;" glyph-name="quotedblleft" horiz-adv-x="484" d="M195 730L171 604H216V457H53V607L91 730H195ZM411 730L387 604H432V457H269V607L307 730H411Z" />
<glyph unicode="&#x201d;" glyph-name="quotedblright" horiz-adv-x="474" d="M70 467L94 593H49V740H212V590L174 467H70ZM286 467L310 593H265V740H428V590L390 467H286Z" />
<glyph unicode="&#x201e;" glyph-name="quotedblbase" horiz-adv-x="480" d="M75 -140L100 0H54V163H218V-4L179 -140H75ZM283 -140L308 0H262V163H425V-4L387 -140H283Z" />
<glyph unicode="&#x2022;" glyph-name="bullet" horiz-adv-x="367" d="M293 351Q293 328 285 308T261 273T226 250T183 241Q160 241 140 249T105 273T82 308T73 351Q73 373 81 393T105 428T140 452T183 461Q206 461 226 452T261 428T284 393T293 351Z" />
<glyph unicode="&#x2039;" glyph-name="guilsinglleft" horiz-adv-x="360" d="M33 293L303 486V357L159 259L303 168V39L33 217V293Z" />
<glyph unicode="&#x203a;" glyph-name="guilsinglright" horiz-adv-x="360" d="M327 217L57 39V168L201 259L57 357V486L327 293V217Z" />
</font>
</defs>
</svg>
